  0
SECTION
  2
HEADER
  9
$ACADVER
  1
AC1015
  9
$ACADMAINTVER
 70
     6
  9
$DWGCODEPAGE
  3
DOS932
  9
$INSBASE
 10
0.0
 20
0.0
 30
0.0
  9
$EXTMIN
 10
0.0
 20
0.0
 30
0.0
  9
$EXTMAX
 10
420.0
 20
297.0
 30
0.0
  9
$LIMMIN
 10
0.0
 20
0.0
  9
$LIMMAX
 10
420.0
 20
297.0
  9
$ORTHOMODE
 70
     0
  9
$REGENMODE
 70
     1
  9
$FILLMODE
 70
     1
  9
$QTEXTMODE
 70
     0
  9
$MIRRTEXT
 70
     1
  9
$LTSCALE
 40
0.25
  9
$ATTMODE
 70
     1
  9
$TEXTSIZE
 40
4.0
  9
$TRACEWID
 40
0.05
  9
$TEXTSTYLE
  7
Standard
  9
$CLAYER
  8
0
  9
$CELTYPE
  6
Continuous
  9
$CECOLOR
 62
   256
  9
$CELTSCALE
 40
1.0
  9
$DISPSILH
 70
     0
  9
$DIMSCALE
 40
1.0
  9
$DIMASZ
 40
2.5
  9
$DIMEXO
 40
0.5
  9
$DIMDLI
 40
8.0
  9
$DIMRND
 40
0.0
  9
$DIMDLE
 40
0.0
  9
$DIMEXE
 40
0.5
  9
$DIMTP
 40
0.0
  9
$DIMTM
 40
0.0
  9
$DIMTXT
 40
4.0
  9
$DIMCEN
 40
0.09
  9
$DIMTSZ
 40
0.0
  9
$DIMTOL
 70
     0
  9
$DIMLIM
 70
     0
  9
$DIMTIH
 70
     0
  9
$DIMTOH
 70
     0
  9
$DIMSE1
 70
     0
  9
$DIMSE2
 70
     0
  9
$DIMTAD
 70
     3
  9
$DIMZIN
 70
     0
  9
$DIMBLK
  1

  9
$DIMASO
 70
     1
  9
$DIMSHO
 70
     1
  9
$DIMPOST
  1

  9
$DIMAPOST
  1

  9
$DIMALT
 70
     0
  9
$DIMALTD
 70
     2
  9
$DIMALTF
 40
25.4
  9
$DIMLFAC
 40
1.0
  9
$DIMTOFL
 70
     1
  9
$DIMTVP
 40
0.7
  9
$DIMTIX
 70
     0
  9
$DIMSOXD
 70
     0
  9
$DIMSAH
 70
     0
  9
$DIMBLK1
  1

  9
$DIMBLK2
  1

  9
$DIMSTYLE
  2
Standard
  9
$DIMCLRD
 70
     0
  9
$DIMCLRE
 70
     0
  9
$DIMCLRT
 70
     0
  9
$DIMTFAC
 40
0.5
  9
$DIMGAP
 40
0.0
  9
$DIMJUST
 70
     0
  9
$DIMSD1
 70
     0
  9
$DIMSD2
 70
     0
  9
$DIMTOLJ
 70
     1
  9
$DIMTZIN
 70
     0
  9
$DIMALTZ
 70
     0
  9
$DIMALTTZ
 70
     0
  9
$DIMUPT
 70
     0
  9
$DIMDEC
 70
     2
  9
$DIMTDEC
 70
     4
  9
$DIMALTU
 70
     2
  9
$DIMALTTD
 70
     2
  9
$DIMTXSTY
  7
Standard
  9
$DIMAUNIT
 70
     0
  9
$DIMADEC
 70
     0
  9
$DIMALTRND
 40
0.0
  9
$DIMAZIN
 70
     0
  9
$DIMDSEP
 70
     0
  9
$DIMATFIT
 70
     3
  9
$DIMFRAC
 70
     0
  9
$DIMLDRBLK
  1

  9
$DIMLUNIT
 70
     2
  9
$DIMLWD
 70
     0
  9
$DIMLWE
 70
     0
  9
$DIMTMOVE
 70
     0
  9
$LUNITS
 70
     2
  9
$LUPREC
 70
     4
  9
$SKETCHINC
 40
0.1
  9
$FILLETRAD
 40
0.0
  9
$AUNITS
 70
     0
  9
$AUPREC
 70
     0
  9
$MENU
  1
acad
  9
$ELEVATION
 40
0.0
  9
$PELEVATION
 40
0.0
  9
$THICKNESS
 40
0.0
  9
$LIMCHECK
 70
     0
  9
$CHAMFERA
 40
0.0
  9
$CHAMFERB
 40
0.0
  9
$CHAMFERC
 40
0.0
  9
$CHAMFERD
 40
0.0
  9
$SKPOLY
 70
     0
  9
$TDCREATE
 40
2453587.754849537
  9
$TDUCREATE
 40
0.000000000
  9
$TDUPDATE
 40
2453587.754849537
  9
$TDUUPDATE
 40
0.000000000
  9
$TDINDWG
 40
0.0000000000
  9
$TDUSRTIMER
 40
0.0000000000
  9
$USRTIMER
 70
     1
  9
$ANGBASE
 50
0.0
  9
$ANGDIR
 70
     0
  9
$PDMODE
 70
     0
  9
$PDSIZE
 40
0.0
  9
$PLINEWID
 40
0.0
  9
$SPLFRAME
 70
     0
  9
$SPLINETYPE
 70
     6
  9
$SPLINESEGS
 70
     8
  9
$HANDSEED
  5
24D
  9
$SURFTAB1
 70
     6
  9
$SURFTAB2
 70
     6
  9
$SURFTYPE
 70
     6
  9
$SURFU
 70
     6
  9
$SURFV
 70
     6
  9
$UCSBASE
  2

  9
$UCSNAME
  2

  9
$UCSORG
 10
0.0
 20
0.0
 30
0.0
  9
$UCSXDIR
 10
1.0
 20
0.0
 30
0.0
  9
$UCSYDIR
 10
0.0
 20
1.0
 30
0.0
  9
$UCSORTHOREF
  2

  9
$UCSORTHOVIEW
 70
     0
  9
$UCSORGTOP
 10
0.0
 20
0.0
 30
0.0
  9
$UCSORGBOTTOM
 10
0.0
 20
0.0
 30
0.0
  9
$UCSORGLEFT
 10
0.0
 20
0.0
 30
0.0
  9
$UCSORGRIGHT
 10
0.0
 20
0.0
 30
0.0
  9
$UCSORGFRONT
 10
0.0
 20
0.0
 30
0.0
  9
$UCSORGBACK
 10
0.0
 20
0.0
 30
0.0
  9
$PUCSBASE
  2

  9
$PUCSNAME
  2

  9
$PUCSORG
 10
0.0
 20
0.0
 30
0.0
  9
$PUCSXDIR
 10
1.0
 20
0.0
 30
0.0
  9
$PUCSYDIR
 10
0.0
 20
1.0
 30
0.0
  9
$PUCSORTHOREF
  2

  9
$PUCSORTHOVIEW
 70
     0
  9
$PUCSORGTOP
 10
0.0
 20
0.0
 30
0.0
  9
$PUCSORGBOTTOM
 10
0.0
 20
0.0
 30
0.0
  9
$PUCSORGLEFT
 10
0.0
 20
0.0
 30
0.0
  9
$PUCSORGRIGHT
 10
0.0
 20
0.0
 30
0.0
  9
$PUCSORGFRONT
 10
0.0
 20
0.0
 30
0.0
  9
$PUCSORGBACK
 10
0.0
 20
0.0
 30
0.0
  9
$USERI1
 70
     0
  9
$USERI2
 70
     0
  9
$USERI3
 70
     0
  9
$USERI4
 70
     0
  9
$USERI5
 70
     0
  9
$USERR1
 40
0.0
  9
$USERR2
 40
0.0
  9
$USERR3
 40
0.0
  9
$USERR4
 40
0.0
  9
$USERR5
 40
0.0
  9
$WORLDVIEW
 70
     1
  9
$SHADEDGE
 70
     3
  9
$SHADEDIF
 70
    70
  9
$TILEMODE
 70
     1
  9
$MAXACTVP
 70
    16
  9
$PINSBASE
 10
0.0
 20
0.0
 30
0.0
  9
$PLIMCHECK
 70
     0
  9
$PEXTMIN
 10
0.0
 20
0.0
 30
0.0
  9
$PEXTMAX
 10
420.0
 20
297.0
 30
0.0
  9
$PLIMMIN
 10
0.0
 20
0.0
  9
$PLIMMAX
 10
420.0
 20
297.0
  9
$UNITMODE
 70
     0
  9
$VISRETAIN
 70
     0
  9
$PLINEGEN
 70
     1
  9
$PSLTSCALE
 70
     0
  9
$TREEDEPTH
 70
  3020
  9
$CMLSTYLE
  2
Standard
  9
$CMLJUST
 70
     0
  9
$CMLSCALE
 40
1.0
  9
$PROXYGRAPHICS
 70
     0
  9
$MEASUREMENT
 70
     0
  9
$CELWEIGHT
370
     0
  9
$ENDCAPS
280
     0
  9
$JOINSTYLE
280
     0
  9
$LWDISPLAY
290
     0
  9
$INSUNITS
 70
     0
  9
$HYPERLINKBASE
  1

  9
$STYLESHEET
  1

  9
$XEDIT
290
     1
  9
$CEPSNTYPE
380
     0
  9
$PSTYLEMODE
290
     1
  9
$FINGERPRINTGUID
  2

  9
$VERSIONGUID
  2

  9
$EXTNAMES
290
     1
  9
$PSVPSCALE
 40
0.0
  0
ENDSEC
  0
SECTION
  2
CLASSES
  0
CLASS
  1
LWPOLYLINE
  2
AcDbPolyline
  3
AutoCAD 2000
 90
    32768
280
     0
281
     1
  0
CLASS
  1
IMAGE
  2
AcDbRasterImage
  3
ISM
 90
    32895
280
     0
281
     1
  0
CLASS
  1
OLE2FRAME
  2
AcDbOle2Frame
  3
AutoCAD 2000
 90
    32768
280
     0
281
     1
  0
CLASS
  1
HATCH
  2
AcDbHatch
  3
AutoCAD 2000
 90
    32768
280
     0
281
     1
  0
CLASS
  1
DICTIONARYVAR
  2
AcDbDictionaryVar
  3
AutoCAD 2000
 90
    32768
280
     0
281
     0
  0
CLASS
  1
RASTERVARIABLES
  2
AcDbRasterVariables
  3
ISM
 90
    32768
280
     0
281
     0
  0
CLASS
  1
IMAGEDEF
  2
AcDbRasterImageDef
  3
ISM
 90
    32768
280
     0
281
     0
  0
CLASS
  1
IMAGEDEF_REACTOR
  2
AcDbRasterImageDefReactor
  3
ISM
 90
    32769
280
     0
281
     0
  0
CLASS
  1
IDBUFFER
  2
AcDbIdBuffer
  3
AutoCAD 2000
 90
    32768
280
     0
281
     0
  0
CLASS
  1
SPATIAL_FILTER
  2
AcDbSpatialFilter
  3
AutoCAD 2000
 90
    32768
280
     0
281
     0
  0
CLASS
  1
XRECORD
  2
AcDbXrecord
  3
AutoCAD 2000
 90
    32768
280
     0
281
     0
  0
CLASS
  1
SORTENTSTABLE
  2
AcDbSortentsTable
  3
AutoCAD 2000
 90
    32768
280
     0
281
     0
  0
CLASS
  1
LAYER_INDEX
  2
AcDbLayerIndex
  3
AutoCAD 2000
 90
    32768
280
     0
281
     0
  0
CLASS
  1
SPATIAL_INDEX
  2
AcDbSpatialIndex
  3
AutoCAD 2000
 90
    32768
280
     0
281
     0
  0
CLASS
  1
OBJECT_PTR
  2
CAseDLPNTableRecord
  3
"ASE-LPNTableRecord"
 90
    32769
280
     0
281
     0
  0
CLASS
  1
LAYOUT
  2
AcDbLayout
  3
AutoCAD 2000
 90
        0
280
     0
281
     0
  0
CLASS
  1
PLOTSETTINGS
  2
AcDbPlotSettings
  3
AutoCAD 2000
 90
    32768
280
     0
281
     0
  0
CLASS
  1
ACDBDICTIONARYWDFLT
  2
AcDbDictionaryWithDefault
  3
AutoCAD 2000
 90
        0
280
     0
281
     0
  0
CLASS
  1
ACDBPLACEHOLDER
  2
AcDbPlaceHolder
  3
AutoCAD 2000
 90
        0
280
     0
281
     0
  0
CLASS
  1
VBA_PROJECT
  2
AcDbVbaProject
  3
acadvba
 90
    32768
280
     0
281
     0
  0
CLASS
  1
WIPEOUT
  2
AcDbWipeout
  3
WipeOut|AutoCAD Express Tool|expresstools@autodesk.com
 90
    32895
280
     0
281
     1
  0
CLASS
  1
WIPEOUTVARIABLES
  2
AcDbWipeoutVariables
  3
WipeOut|AutoCAD Express Tool|expresstools@autodesk.com
 90
        0
280
     0
281
     0
  0
CLASS
  1
RTEXT
  2
RText
  3
RText|AutoCAD Express Tool|expresstools@autodesk.com
 90
    32768
280
     0
281
     1
  0
CLASS
  1
ARCALIGNEDTEXT
  2
AcDbArcAlignedText
  3
ATEXT|AutoCAD Express Tool|expresstools@autodesk.com
 90
    32768
280
     0
281
     1
  0
ENDSEC
  0
SECTION
  2
TABLES
  0
TABLE
  2
VPORT
  5
7
100
AcDbSymbolTable
 70
     1
  0
VPORT
  5
15
100
AcDbSymbolTableRecord
100
AcDbViewportTableRecord
  2
*ACTIVE
 70
     0
 10
0.0
 20
0.0
 11
1.0
 21
1.0
 12
6.591288
 22
4.579184
 13
0.0
 23
0.0
 14
1.0
 24
1.0
 15
0.0
 25
0.0
 16
0.0
 26
0.0
 36
1.0
 17
0.0
 27
0.0
 37
0.0
 40
9.158369
 41
0.688564
 42
50.0
 43
0.0
 44
0.0
 50
0.0
 51
0.0
 71
     0
 72
   100
 73
     1
 74
     1
 75
     0
 76
     0
 77
     0
 78
     0
281
     0
 65
     0
110
0.0
120
0.0
130
0.0
111
1.0
121
0.0
131
0.0
112
0.0
122
1.0
132
0.0
345
0
346
0
 79
     0
146
0.0
  0
ENDTAB
  0
TABLE
  2
LTYPE
  5
4
100
AcDbSymbolTable
 70
     9
  0
LTYPE
  5
11
100
AcDbSymbolTableRecord
100
AcDbLinetypeTableRecord
  2
ByBlock
 70
    64
  3

 72
    65
 73
     0
 40
0.0
  0
LTYPE
  5
12
100
AcDbSymbolTableRecord
100
AcDbLinetypeTableRecord
  2
ByLayer
 70
    64
  3

 72
    65
 73
     0
 40
0.0
  0
LTYPE
  5
13
100
AcDbSymbolTableRecord
100
AcDbLinetypeTableRecord
  2
Continuous
 70
    64
  3
Solid line
 72
    65
 73
     0
 40
0.0
  0
LTYPE
  5
25
100
AcDbSymbolTableRecord
100
AcDbLinetypeTableRecord
  2
HIDDEN
 70
    64
  3
- - - - - - - - 
 72
    65
 73
     2
 40
12.6
 49
8.4
 74
     0
 49
-4.2
 74
     0
  0
LTYPE
  5
26
100
AcDbSymbolTableRecord
100
AcDbLinetypeTableRecord
  2
DOT
 70
    64
  3
･ ･ ･ ･ ･ ･ ･ ･ 
 72
    65
 73
     2
 40
8.0
 49
6.0
 74
     0
 49
-2.0
 74
     0
  0
LTYPE
  5
27
100
AcDbSymbolTableRecord
100
AcDbLinetypeTableRecord
  2
CENTER
 70
    64
  3
- ･ - ･ - ･ - ･ 
 72
    65
 73
     4
 40
50.5
 49
30.0
 74
     0
 49
-9.0
 74
     0
 49
2.5
 74
     0
 49
-9.0
 74
     0
  0
LTYPE
  5
28
100
AcDbSymbolTableRecord
100
AcDbLinetypeTableRecord
  2
PHANTOM
 70
    64
  3
- ･･ - ･･ - ･･ - ･･ 
 72
    65
 73
     6
 40
58.0
 49
30.0
 74
     0
 49
-9.0
 74
     0
 49
2.5
 74
     0
 49
-5.0
 74
     0
 49
2.5
 74
     0
 49
-9.0
 74
     0
  0
LTYPE
  5
29
100
AcDbSymbolTableRecord
100
AcDbLinetypeTableRecord
  2
ACAD_ISO06W100
 70
    64
  3
____ ... ____ ... ____
 72
    65
 73
     8
 40
37.5
 49
24.0
 74
     0
 49
-3.0
 74
     0
 49
0.5
 74
     0
 49
-3.0
 74
     0
 49
0.5
 74
     0
 49
-3.0
 74
     0
 49
0.5
 74
     0
 49
-3.0
 74
     0
  0
LTYPE
  5
2A
100
AcDbSymbolTableRecord
100
AcDbLinetypeTableRecord
  2
ACAD_ISO14W100
 70
    64
  3
__ . . . __ . . . __ . . . 
 72
    65
 73
     8
 40
25.5
 49
12.0
 74
     0
 49
-3.0
 74
     0
 49
0.5
 74
     0
 49
-3.0
 74
     0
 49
0.5
 74
     0
 49
-3.0
 74
     0
 49
0.5
 74
     0
 49
-3.0
 74
     0
  0
ENDTAB
  0
TABLE
  2
LAYER
  5
2
100
AcDbSymbolTable
 70
    26
  0
LAYER
  5
14
100
AcDbSymbolTableRecord
100
AcDbLayerTableRecord
  2
0
 70
     0
 62
     7
  6
Continuous
290
     1
370
    -3
390
1D
  0
LAYER
  5
2B
100
AcDbSymbolTableRecord
100
AcDbLayerTableRecord
  2
1
 70
     0
 62
     7
  6
Continuous
290
     1
370
    -3
390
1D
  0
LAYER
  5
2C
100
AcDbSymbolTableRecord
100
AcDbLayerTableRecord
  2
2
 70
     0
 62
   134
  6
Continuous
290
     1
370
    -3
390
1D
  0
LAYER
  5
2D
100
AcDbSymbolTableRecord
100
AcDbLayerTableRecord
  2
3
 70
     0
 62
   214
  6
Continuous
290
     1
370
    -3
390
1D
  0
LAYER
  5
2E
100
AcDbSymbolTableRecord
100
AcDbLayerTableRecord
  2
4
 70
     0
 62
    54
  6
Continuous
290
     1
370
    -3
390
1D
  0
LAYER
  5
2F
100
AcDbSymbolTableRecord
100
AcDbLayerTableRecord
  2
5
 70
     0
 62
    94
  6
Continuous
290
     1
370
    -3
390
1D
  0
LAYER
  5
30
100
AcDbSymbolTableRecord
100
AcDbLayerTableRecord
  2
6
 70
     0
 62
    14
  6
Continuous
290
     1
370
    -3
390
1D
  0
LAYER
  5
31
100
AcDbSymbolTableRecord
100
AcDbLayerTableRecord
  2
7
 70
     0
 62
     4
  6
Continuous
290
     1
370
    -3
390
1D
  0
LAYER
  5
32
100
AcDbSymbolTableRecord
100
AcDbLayerTableRecord
  2
8
 70
     0
 62
     6
  6
Continuous
290
     1
370
    -3
390
1D
  0
LAYER
  5
33
100
AcDbSymbolTableRecord
100
AcDbLayerTableRecord
  2
9
 70
     0
 62
     5
  6
Continuous
290
     1
370
    -3
390
1D
  0
LAYER
  5
34
100
AcDbSymbolTableRecord
100
AcDbLayerTableRecord
  2
10
 70
     0
 62
     3
  6
Continuous
290
     1
370
    -3
390
1D
  0
LAYER
  5
35
100
AcDbSymbolTableRecord
100
AcDbLayerTableRecord
  2
11
 70
     0
 62
   251
  6
Continuous
290
     1
370
    -3
390
1D
  0
LAYER
  5
36
100
AcDbSymbolTableRecord
100
AcDbLayerTableRecord
  2
12
 70
     0
 62
   136
  6
Continuous
290
     1
370
    -3
390
1D
  0
LAYER
  5
37
100
AcDbSymbolTableRecord
100
AcDbLayerTableRecord
  2
13
 70
     0
 62
     5
  6
Continuous
290
     1
370
    -3
390
1D
  0
LAYER
  5
38
100
AcDbSymbolTableRecord
100
AcDbLayerTableRecord
  2
14
 70
     0
 62
    56
  6
Continuous
290
     1
370
    -3
390
1D
  0
LAYER
  5
39
100
AcDbSymbolTableRecord
100
AcDbLayerTableRecord
  2
15
 70
     0
 62
    96
  6
Continuous
290
     1
370
    -3
390
1D
  0
LAYER
  5
3A
100
AcDbSymbolTableRecord
100
AcDbLayerTableRecord
  2
16
 70
     0
 62
    16
  6
Continuous
290
     1
370
    -3
390
1D
  0
LAYER
  5
3B
100
AcDbSymbolTableRecord
100
AcDbLayerTableRecord
  2
17
 70
     0
 62
   132
  6
Continuous
290
     1
370
    -3
390
1D
  0
LAYER
  5
3C
100
AcDbSymbolTableRecord
100
AcDbLayerTableRecord
  2
18
 70
     0
 62
   212
  6
Continuous
290
     1
370
    -3
390
1D
  0
LAYER
  5
3D
100
AcDbSymbolTableRecord
100
AcDbLayerTableRecord
  2
19
 70
     0
 62
    52
  6
Continuous
290
     1
370
    -3
390
1D
  0
LAYER
  5
3E
100
AcDbSymbolTableRecord
100
AcDbLayerTableRecord
  2
20
 70
     0
 62
   250
  6
Continuous
290
     1
370
    -3
390
1D
  0
LAYER
  5
3F
100
AcDbSymbolTableRecord
100
AcDbLayerTableRecord
  2
21
 70
     0
 62
     7
  6
Continuous
290
     1
370
    -3
390
1D
  0
LAYER
  5
40
100
AcDbSymbolTableRecord
100
AcDbLayerTableRecord
  2
22
 70
     0
 62
    94
  6
Continuous
290
     1
370
    -3
390
1D
  0
LAYER
  5
41
100
AcDbSymbolTableRecord
100
AcDbLayerTableRecord
  2
113
 70
     0
 62
     7
  6
Continuous
290
     1
370
    -3
390
1D
  0
LAYER
  5
42
100
AcDbSymbolTableRecord
100
AcDbLayerTableRecord
  2
128
 70
     0
 62
     7
  6
Continuous
290
     1
370
    -3
390
1D
  0
LAYER
  5
43
100
AcDbSymbolTableRecord
100
AcDbLayerTableRecord
  2
129
 70
     0
 62
   174
  6
Continuous
290
     1
370
    -3
390
1D
  0
ENDTAB
  0
TABLE
  2
STYLE
  5
3
100
AcDbSymbolTable
 70
     2
  0
STYLE
  5
17
100
AcDbSymbolTableRecord
100
AcDbTextStyleTableRecord
  2
Standard
 70
     0
 40
0.0
 41
1.0
 50
0.0
 71
     0
 42
0.0
  3
txt
  4
bigfont
  0
STYLE
  5
24
100
AcDbSymbolTableRecord
100
AcDbTextStyleTableRecord
  2
T_STANDARD
 70
    68
 40
10.0
 41
1.0
 50
0.0
 71
     0
 42
10.0
  3
txt
  4
bigfont
  0
ENDTAB
  0
TABLE
  2
VIEW
  5
5
100
AcDbSymbolTable
 70
     0
  0
ENDTAB
  0
TABLE
  2
UCS
  5
6
100
AcDbSymbolTable
 70
     0
  0
ENDTAB
  0
TABLE
  2
APPID
  5
8
100
AcDbSymbolTable
 70
     1
  0
APPID
  5
16
100
AcDbSymbolTableRecord
100
AcDbRegAppTableRecord
  2
ACAD
 70
     0
  0
ENDTAB
  0
TABLE
  2
DIMSTYLE
  5
9
100
AcDbSymbolTable
 70
     1
100
AcDbDimStyleTable
 71
     0
  0
DIMSTYLE
105
18
100
AcDbSymbolTableRecord
100
AcDbDimStyleTableRecord
  2
Standard
 70
     0
  3

  4

 40
1.0
 41
0.18
 42
0.0625
 43
0.38
 44
0.18
 45
0.0
 46
0.0
 47
0.0
 48
0.0
 71
     0
 72
     0
 73
     1
 74
     1
 75
     0
 76
     0
 77
     0
 78
     0
 79
     0
140
0.18
141
0.09
142
0.0
143
25.4
144
1.0
145
0.0
146
1.0
147
0.09
148
0.0
170
     0
171
     2
172
     0
173
     0
174
     0
175
     0
176
     0
177
     0
178
     0
179
     0
271
     4
272
     4
273
     2
274
     2
275
     0
276
     0
277
     2
278
    46
279
     0
280
     0
281
     0
282
     0
283
     1
284
     0
285
     0
286
     0
288
     0
340
17
341
0
342
0
343
0
344
0
371
    -2
372
    -2
  0
ENDTAB
  0
TABLE
  2
BLOCK_RECORD
  5
1
100
AcDbSymbolTable
 70
    37
  0
BLOCK_RECORD
  5
A
100
AcDbSymbolTableRecord
100
AcDbBlockTableRecord
  2
*MODEL_SPACE
340
20
  0
BLOCK_RECORD
  5
B
100
AcDbSymbolTableRecord
100
AcDbBlockTableRecord
  2
*PAPER_SPACE
340
21
  0
BLOCK_RECORD
  5
44
100
AcDbSymbolTableRecord
100
AcDbBlockTableRecord
  2
*G0
340
0
102
{BLKREFS
331
47
102
}
  0
BLOCK_RECORD
  5
8D
100
AcDbSymbolTableRecord
100
AcDbBlockTableRecord
  2
*G1
340
0
102
{BLKREFS
331
91
102
}
  0
BLOCK_RECORD
  5
92
100
AcDbSymbolTableRecord
100
AcDbBlockTableRecord
  2
*G2
340
0
102
{BLKREFS
331
96
102
}
  0
BLOCK_RECORD
  5
A0
100
AcDbSymbolTableRecord
100
AcDbBlockTableRecord
  2
*G3
340
0
102
{BLKREFS
331
A4
102
}
  0
BLOCK_RECORD
  5
AE
100
AcDbSymbolTableRecord
100
AcDbBlockTableRecord
  2
*G4
340
0
102
{BLKREFS
331
B3
102
}
  0
BLOCK_RECORD
  5
B5
100
AcDbSymbolTableRecord
100
AcDbBlockTableRecord
  2
*G5
340
0
102
{BLKREFS
331
BA
102
}
  0
BLOCK_RECORD
  5
BB
100
AcDbSymbolTableRecord
100
AcDbBlockTableRecord
  2
*G6
340
0
102
{BLKREFS
331
C0
102
}
  0
BLOCK_RECORD
  5
C2
100
AcDbSymbolTableRecord
100
AcDbBlockTableRecord
  2
*G7
340
0
102
{BLKREFS
331
C7
102
}
  0
BLOCK_RECORD
  5
C8
100
AcDbSymbolTableRecord
100
AcDbBlockTableRecord
  2
*G8
340
0
102
{BLKREFS
331
D0
102
}
  0
BLOCK_RECORD
  5
D1
100
AcDbSymbolTableRecord
100
AcDbBlockTableRecord
  2
*G9
340
0
102
{BLKREFS
331
D6
102
}
  0
BLOCK_RECORD
  5
D8
100
AcDbSymbolTableRecord
100
AcDbBlockTableRecord
  2
*G10
340
0
102
{BLKREFS
331
DD
102
}
  0
BLOCK_RECORD
  5
DE
100
AcDbSymbolTableRecord
100
AcDbBlockTableRecord
  2
*G11
340
0
102
{BLKREFS
331
E8
102
}
  0
BLOCK_RECORD
  5
F1
100
AcDbSymbolTableRecord
100
AcDbBlockTableRecord
  2
*G12
340
0
102
{BLKREFS
331
F6
102
}
  0
BLOCK_RECORD
  5
F7
100
AcDbSymbolTableRecord
100
AcDbBlockTableRecord
  2
*G13
340
0
102
{BLKREFS
331
FC
102
}
  0
BLOCK_RECORD
  5
FF
100
AcDbSymbolTableRecord
100
AcDbBlockTableRecord
  2
*G14
340
0
102
{BLKREFS
331
104
102
}
  0
BLOCK_RECORD
  5
10A
100
AcDbSymbolTableRecord
100
AcDbBlockTableRecord
  2
*G15
340
0
102
{BLKREFS
331
113
102
}
  0
BLOCK_RECORD
  5
114
100
AcDbSymbolTableRecord
100
AcDbBlockTableRecord
  2
*G16
340
0
102
{BLKREFS
331
11D
102
}
  0
BLOCK_RECORD
  5
11E
100
AcDbSymbolTableRecord
100
AcDbBlockTableRecord
  2
*G17
340
0
102
{BLKREFS
331
138
102
}
  0
BLOCK_RECORD
  5
139
100
AcDbSymbolTableRecord
100
AcDbBlockTableRecord
  2
*G18
340
0
102
{BLKREFS
331
142
102
}
  0
BLOCK_RECORD
  5
143
100
AcDbSymbolTableRecord
100
AcDbBlockTableRecord
  2
*G19
340
0
102
{BLKREFS
331
14A
102
}
  0
BLOCK_RECORD
  5
14B
100
AcDbSymbolTableRecord
100
AcDbBlockTableRecord
  2
*G20
340
0
102
{BLKREFS
331
14F
102
}
  0
BLOCK_RECORD
  5
157
100
AcDbSymbolTableRecord
100
AcDbBlockTableRecord
  2
*G21
340
0
102
{BLKREFS
331
15D
102
}
  0
BLOCK_RECORD
  5
15E
100
AcDbSymbolTableRecord
100
AcDbBlockTableRecord
  2
*G22
340
0
102
{BLKREFS
331
16F
102
}
  0
BLOCK_RECORD
  5
170
100
AcDbSymbolTableRecord
100
AcDbBlockTableRecord
  2
*G23
340
0
102
{BLKREFS
331
174
102
}
  0
BLOCK_RECORD
  5
175
100
AcDbSymbolTableRecord
100
AcDbBlockTableRecord
  2
*G24
340
0
102
{BLKREFS
331
179
102
}
  0
BLOCK_RECORD
  5
17A
100
AcDbSymbolTableRecord
100
AcDbBlockTableRecord
  2
*G25
340
0
102
{BLKREFS
331
17F
102
}
  0
BLOCK_RECORD
  5
180
100
AcDbSymbolTableRecord
100
AcDbBlockTableRecord
  2
*G26
340
0
102
{BLKREFS
331
187
102
}
  0
BLOCK_RECORD
  5
188
100
AcDbSymbolTableRecord
100
AcDbBlockTableRecord
  2
*G27
340
0
102
{BLKREFS
331
18D
102
}
  0
BLOCK_RECORD
  5
18E
100
AcDbSymbolTableRecord
100
AcDbBlockTableRecord
  2
*G28
340
0
102
{BLKREFS
331
192
102
}
  0
BLOCK_RECORD
  5
193
100
AcDbSymbolTableRecord
100
AcDbBlockTableRecord
  2
*D29
340
0
  0
BLOCK_RECORD
  5
19F
100
AcDbSymbolTableRecord
100
AcDbBlockTableRecord
  2
*G30
340
0
102
{BLKREFS
331
1AC
102
}
  0
BLOCK_RECORD
  5
1AD
100
AcDbSymbolTableRecord
100
AcDbBlockTableRecord
  2
*G31
340
0
102
{BLKREFS
331
1F7
102
}
  0
BLOCK_RECORD
  5
1F8
100
AcDbSymbolTableRecord
100
AcDbBlockTableRecord
  2
*G32
340
0
102
{BLKREFS
331
208
102
}
  0
BLOCK_RECORD
  5
20D
100
AcDbSymbolTableRecord
100
AcDbBlockTableRecord
  2
*D33
340
0
  0
BLOCK_RECORD
  5
219
100
AcDbSymbolTableRecord
100
AcDbBlockTableRecord
  2
*D34
340
0
  0
BLOCK_RECORD
  5
225
100
AcDbSymbolTableRecord
100
AcDbBlockTableRecord
  2
*G35
340
0
102
{BLKREFS
331
236
102
}
  0
BLOCK_RECORD
  5
239
100
AcDbSymbolTableRecord
100
AcDbBlockTableRecord
  2
*G36
340
0
102
{BLKREFS
331
240
102
}
  0
ENDTAB
  0
ENDSEC
  0
SECTION
  2
BLOCKS
  0
BLOCK
  5
D
100
AcDbEntity
  8
0
100
AcDbBlockBegin
  2
*MODEL_SPACE
 70
     0
 10
0.0
 20
0.0
 30
0.0
  3
*MODEL_SPACE
  1

  0
ENDBLK
  5
E
100
AcDbEntity
  8
0
100
AcDbBlockEnd
  0
BLOCK
  5
F
100
AcDbEntity
 67
     1
  8
0
100
AcDbBlockBegin
  2
*PAPER_SPACE
 70
     0
 10
0.0
 20
0.0
 30
0.0
  3
*PAPER_SPACE
  1

  0
ENDBLK
  5
10
100
AcDbEntity
 67
     1
  8
0
100
AcDbBlockEnd
  0
BLOCK
  5
45
100
AcDbEntity
  8
0
370
     9
  6
Continuous
 62
     7
100
AcDbBlockBegin
  2
*G0
 70
     0
 10
0.0
 20
0.0
 30
0.0
  3
*G0
  1

  0
ENDBLK
  5
46
100
AcDbEntity
  8
0
100
AcDbBlockEnd
  0
BLOCK
  5
8E
100
AcDbEntity
  8
0
370
     9
  6
Continuous
 62
     7
100
AcDbBlockBegin
  2
*G1
 70
     0
 10
0.0
 20
0.0
 30
0.0
  3
*G1
  1

  0
LINE
  5
8F
100
AcDbEntity
  8
20
370
    30
  6
Continuous
 62
   250
100
AcDbLine
 10
105.469163
 20
124.195756
 30
0.0
 11
35.469163
 21
124.195756
 31
0.0
  0
ENDBLK
  5
90
100
AcDbEntity
  8
0
100
AcDbBlockEnd
  0
BLOCK
  5
93
100
AcDbEntity
  8
0
370
     9
  6
Continuous
 62
     7
100
AcDbBlockBegin
  2
*G2
 70
     0
 10
0.0
 20
0.0
 30
0.0
  3
*G2
  1

  0
LINE
  5
94
100
AcDbEntity
  8
20
370
    30
  6
Continuous
 62
   250
100
AcDbLine
 10
290.620968
 20
124.195756
 30
0.0
 11
360.620968
 21
124.195756
 31
0.0
  0
ENDBLK
  5
95
100
AcDbEntity
  8
0
100
AcDbBlockEnd
  0
BLOCK
  5
A1
100
AcDbEntity
  8
0
370
     9
  6
Continuous
 62
     7
100
AcDbBlockBegin
  2
*G3
 70
     0
 10
0.0
 20
0.0
 30
0.0
  3
*G3
  1

  0
LINE
  5
A2
100
AcDbEntity
  8
20
370
    30
  6
Continuous
 62
   250
100
AcDbLine
 10
261.098582
 20
124.195756
 30
0.0
 11
153.098583
 21
124.195756
 31
0.0
  0
ENDBLK
  5
A3
100
AcDbEntity
  8
0
100
AcDbBlockEnd
  0
BLOCK
  5
AF
100
AcDbEntity
  8
0
370
     9
  6
Continuous
 62
     7
100
AcDbBlockBegin
  2
*G4
 70
     0
 10
0.0
 20
0.0
 30
0.0
  3
*G4
  1

  0
ARC
  5
B0
100
AcDbEntity
  8
20
370
    30
  6
Continuous
 62
   250
100
AcDbCircle
 10
36.469163
 20
116.109969
 30
0.0
 40
1.0
100
AcDbArc
 50
180.0
 51
-135.0
  0
LINE
  5
B1
100
AcDbEntity
  8
20
370
    30
  6
Continuous
 62
   250
100
AcDbLine
 10
40.469163
 20
110.695756
 30
0.0
 11
35.762056
 21
115.402862
 31
0.0
  0
ENDBLK
  5
B2
100
AcDbEntity
  8
0
100
AcDbBlockEnd
  0
BLOCK
  5
B6
100
AcDbEntity
  8
0
370
     9
  6
Continuous
 62
     7
100
AcDbBlockBegin
  2
*G5
 70
     0
 10
0.0
 20
0.0
 30
0.0
  3
*G5
  1

  0
LINE
  5
B7
100
AcDbEntity
  8
20
370
    30
  6
Continuous
 62
   250
100
AcDbLine
 10
355.620968
 20
110.695756
 30
0.0
 11
360.620968
 21
115.695756
 31
0.0
  0
LINE
  5
B8
100
AcDbEntity
  8
20
370
    30
  6
Continuous
 62
   250
100
AcDbLine
 10
295.620968
 20
110.695756
 30
0.0
 11
355.620968
 21
110.695756
 31
0.0
  0
ENDBLK
  5
B9
100
AcDbEntity
  8
0
100
AcDbBlockEnd
  0
BLOCK
  5
BC
100
AcDbEntity
  8
0
370
     9
  6
Continuous
 62
     7
100
AcDbBlockBegin
  2
*G6
 70
     0
 10
0.0
 20
0.0
 30
0.0
  3
*G6
  1

  0
LINE
  5
BD
100
AcDbEntity
  8
20
370
     9
  6
DOT
 62
   250
100
AcDbLine
 10
299.1191
 20
110.695756
 30
0.0
 11
305.620968
 21
101.695756
 31
0.0
  0
LINE
  5
BE
100
AcDbEntity
  8
20
370
     9
  6
DOT
 62
   250
100
AcDbLine
 10
305.620968
 20
101.695756
 30
0.0
 11
305.620968
 21
70.695756
 31
0.0
  0
ENDBLK
  5
BF
100
AcDbEntity
  8
0
100
AcDbBlockEnd
  0
BLOCK
  5
C3
100
AcDbEntity
  8
0
370
     9
  6
Continuous
 62
     7
100
AcDbBlockBegin
  2
*G7
 70
     0
 10
0.0
 20
0.0
 30
0.0
  3
*G7
  1

  0
LINE
  5
C4
100
AcDbEntity
  8
20
370
     9
  6
DOT
 62
   250
100
AcDbLine
 10
352.122836
 20
110.695756
 30
0.0
 11
345.620968
 21
101.695756
 31
0.0
  0
LINE
  5
C5
100
AcDbEntity
  8
20
370
     9
  6
DOT
 62
   250
100
AcDbLine
 10
345.620968
 20
101.695756
 30
0.0
 11
345.620968
 21
70.695756
 31
0.0
  0
ENDBLK
  5
C6
100
AcDbEntity
  8
0
100
AcDbBlockEnd
  0
BLOCK
  5
C9
100
AcDbEntity
  8
0
370
     9
  6
Continuous
 62
     7
100
AcDbBlockBegin
  2
*G8
 70
     0
 10
0.0
 20
0.0
 30
0.0
  3
*G8
  1

  0
LINE
  5
CA
100
AcDbEntity
  8
20
370
    30
  6
Continuous
 62
   250
100
AcDbLine
 10
302.948478
 20
70.50605
 30
0.0
 11
299.1191
 21
110.695756
 31
0.0
  0
ARC
  5
CB
100
AcDbEntity
  8
20
370
    30
  6
Continuous
 62
   250
100
AcDbCircle
 10
304.939461
 20
70.695756
 30
0.0
 40
2.0
100
AcDbArc
 50
-174.557143
 51
-90.0
  0
LINE
  5
CC
100
AcDbEntity
  8
20
370
    30
  6
Continuous
 62
   250
100
AcDbLine
 10
304.939461
 20
68.695756
 30
0.0
 11
346.302475
 21
68.695756
 31
0.0
  0
LINE
  5
CD
100
AcDbEntity
  8
20
370
    30
  6
Continuous
 62
   250
100
AcDbLine
 10
348.293457
 20
70.50605
 30
0.0
 11
352.122836
 21
110.695756
 31
0.0
  0
ARC
  5
CE
100
AcDbEntity
  8
20
370
    30
  6
Continuous
 62
   250
100
AcDbCircle
 10
346.302475
 20
70.695756
 30
0.0
 40
2.0
100
AcDbArc
 50
-90.0
 51
-5.442857
  0
ENDBLK
  5
CF
100
AcDbEntity
  8
0
100
AcDbBlockEnd
  0
BLOCK
  5
D2
100
AcDbEntity
  8
0
370
     9
  6
Continuous
 62
     7
100
AcDbBlockBegin
  2
*G9
 70
     0
 10
0.0
 20
0.0
 30
0.0
  3
*G9
  1

  0
LINE
  5
D3
100
AcDbEntity
  8
20
370
     9
  6
DOT
 62
   250
100
AcDbLine
 10
96.971031
 20
110.695756
 30
0.0
 11
90.469163
 21
101.695756
 31
0.0
  0
LINE
  5
D4
100
AcDbEntity
  8
20
370
     9
  6
DOT
 62
   250
100
AcDbLine
 10
90.469163
 20
101.695756
 30
0.0
 11
90.469163
 21
70.695756
 31
0.0
  0
ENDBLK
  5
D5
100
AcDbEntity
  8
0
100
AcDbBlockEnd
  0
BLOCK
  5
D9
100
AcDbEntity
  8
0
370
     9
  6
Continuous
 62
     7
100
AcDbBlockBegin
  2
*G10
 70
     0
 10
0.0
 20
0.0
 30
0.0
  3
*G10
  1

  0
LINE
  5
DA
100
AcDbEntity
  8
20
370
     9
  6
DOT
 62
   250
100
AcDbLine
 10
43.967295
 20
110.695756
 30
0.0
 11
50.469163
 21
101.695756
 31
0.0
  0
LINE
  5
DB
100
AcDbEntity
  8
20
370
     9
  6
DOT
 62
   250
100
AcDbLine
 10
50.469163
 20
101.695756
 30
0.0
 11
50.469163
 21
70.695756
 31
0.0
  0
ENDBLK
  5
DC
100
AcDbEntity
  8
0
100
AcDbBlockEnd
  0
BLOCK
  5
DF
100
AcDbEntity
  8
0
370
     9
  6
Continuous
 62
     7
100
AcDbBlockBegin
  2
*G11
 70
     0
 10
0.0
 20
0.0
 30
0.0
  3
*G11
  1

  0
LINE
  5
E0
100
AcDbEntity
  8
20
370
    30
  6
Continuous
 62
   250
100
AcDbLine
 10
96.971031
 20
110.695756
 30
0.0
 11
100.469163
 21
110.695756
 31
0.0
  0
LINE
  5
E1
100
AcDbEntity
  8
20
370
    30
  6
Continuous
 62
   250
100
AcDbLine
 10
43.967295
 20
110.695756
 30
0.0
 11
40.469163
 21
110.695756
 31
0.0
  0
LINE
  5
E2
100
AcDbEntity
  8
20
370
    30
  6
Continuous
 62
   250
100
AcDbLine
 10
93.141653
 20
70.50605
 30
0.0
 11
96.971031
 21
110.695756
 31
0.0
  0
ARC
  5
E3
100
AcDbEntity
  8
20
370
    30
  6
Continuous
 62
   250
100
AcDbCircle
 10
91.15067
 20
70.695756
 30
0.0
 40
2.0
100
AcDbArc
 50
-90.0
 51
-5.442857
  0
LINE
  5
E4
100
AcDbEntity
  8
20
370
    30
  6
Continuous
 62
   250
100
AcDbLine
 10
49.787656
 20
68.695756
 30
0.0
 11
91.15067
 21
68.695756
 31
0.0
  0
LINE
  5
E5
100
AcDbEntity
  8
20
370
    30
  6
Continuous
 62
   250
100
AcDbLine
 10
47.796674
 20
70.50605
 30
0.0
 11
43.967295
 21
110.695756
 31
0.0
  0
ARC
  5
E6
100
AcDbEntity
  8
20
370
    30
  6
Continuous
 62
   250
100
AcDbCircle
 10
49.787656
 20
70.695756
 30
0.0
 40
2.0
100
AcDbArc
 50
-174.557143
 51
-90.0
  0
ENDBLK
  5
E7
100
AcDbEntity
  8
0
100
AcDbBlockEnd
  0
BLOCK
  5
F2
100
AcDbEntity
  8
0
370
     9
  6
Continuous
 62
     7
100
AcDbBlockBegin
  2
*G12
 70
     0
 10
0.0
 20
0.0
 30
0.0
  3
*G12
  1

  0
LINE
  5
F3
100
AcDbEntity
  8
20
370
     9
  6
Continuous
 62
   250
100
AcDbLine
 10
70.469135
 20
97.195756
 30
0.0
 11
81.469135
 21
97.195756
 31
0.0
  0
LINE
  5
F4
100
AcDbEntity
  8
20
370
     9
  6
Continuous
 62
   250
100
AcDbLine
 10
81.469135
 20
94.195756
 30
0.0
 11
70.469135
 21
94.195756
 31
0.0
  0
ENDBLK
  5
F5
100
AcDbEntity
  8
0
100
AcDbBlockEnd
  0
BLOCK
  5
F8
100
AcDbEntity
  8
0
370
     9
  6
Continuous
 62
     7
100
AcDbBlockBegin
  2
*G13
 70
     0
 10
0.0
 20
0.0
 30
0.0
  3
*G13
  1

  0
LINE
  5
F9
100
AcDbEntity
  8
20
370
     9
  6
Continuous
 62
   250
100
AcDbLine
 10
66.226494
 20
91.195756
 30
0.0
 11
81.469135
 21
91.195756
 31
0.0
  0
LINE
  5
FA
100
AcDbEntity
  8
20
370
     9
  6
Continuous
 62
   250
100
AcDbLine
 10
81.469135
 20
88.195756
 30
0.0
 11
66.226494
 21
88.195756
 31
0.0
  0
ENDBLK
  5
FB
100
AcDbEntity
  8
0
100
AcDbBlockEnd
  0
BLOCK
  5
100
100
AcDbEntity
  8
0
370
     9
  6
Continuous
 62
     7
100
AcDbBlockBegin
  2
*G14
 70
     0
 10
0.0
 20
0.0
 30
0.0
  3
*G14
  1

  0
LINE
  5
101
100
AcDbEntity
  8
20
370
     9
  6
Continuous
 62
   250
100
AcDbLine
 10
81.469135
 20
82.195756
 30
0.0
 11
70.469135
 21
82.195756
 31
0.0
  0
LINE
  5
102
100
AcDbEntity
  8
20
370
     9
  6
Continuous
 62
   250
100
AcDbLine
 10
70.469135
 20
85.195756
 30
0.0
 11
81.469135
 21
85.195756
 31
0.0
  0
ENDBLK
  5
103
100
AcDbEntity
  8
0
100
AcDbBlockEnd
  0
BLOCK
  5
10B
100
AcDbEntity
  8
0
370
     9
  6
Continuous
 62
     7
100
AcDbBlockBegin
  2
*G15
 70
     0
 10
0.0
 20
0.0
 30
0.0
  3
*G15
  1

  0
LINE
  5
10C
100
AcDbEntity
  8
18
370
    30
  6
Continuous
 62
   212
100
AcDbLine
 10
100.778561
 20
140.695756
 30
0.0
 11
91.778561
 21
140.695756
 31
0.0
  0
LINE
  5
10D
100
AcDbEntity
  8
18
370
    30
  6
Continuous
 62
   212
100
AcDbLine
 10
40.159766
 20
140.695756
 30
0.0
 11
49.159766
 21
140.695756
 31
0.0
  0
LINE
  5
10E
100
AcDbEntity
  8
18
370
    30
  6
Continuous
 62
   212
100
AcDbLine
 10
49.159766
 20
140.695756
 30
0.0
 11
49.159766
 21
136.695756
 31
0.0
  0
LINE
  5
10F
100
AcDbEntity
  8
18
370
    30
  6
Continuous
 62
   212
100
AcDbLine
 10
40.159766
 20
136.695756
 30
0.0
 11
40.159766
 21
140.695756
 31
0.0
  0
LINE
  5
110
100
AcDbEntity
  8
18
370
    30
  6
Continuous
 62
   212
100
AcDbLine
 10
91.778561
 20
140.695756
 30
0.0
 11
91.778561
 21
136.695756
 31
0.0
  0
LINE
  5
111
100
AcDbEntity
  8
18
370
    30
  6
Continuous
 62
   212
100
AcDbLine
 10
100.778561
 20
136.695756
 30
0.0
 11
100.778561
 21
140.695756
 31
0.0
  0
ENDBLK
  5
112
100
AcDbEntity
  8
0
100
AcDbBlockEnd
  0
BLOCK
  5
115
100
AcDbEntity
  8
0
370
     9
  6
Continuous
 62
     7
100
AcDbBlockBegin
  2
*G16
 70
     0
 10
0.0
 20
0.0
 30
0.0
  3
*G16
  1

  0
LINE
  5
116
100
AcDbEntity
  8
18
370
    30
  6
Continuous
 62
   212
100
AcDbLine
 10
355.930365
 20
140.695756
 30
0.0
 11
346.930365
 21
140.695756
 31
0.0
  0
LINE
  5
117
100
AcDbEntity
  8
18
370
    30
  6
Continuous
 62
   212
100
AcDbLine
 10
295.31157
 20
140.695756
 30
0.0
 11
304.31157
 21
140.695756
 31
0.0
  0
LINE
  5
118
100
AcDbEntity
  8
18
370
    30
  6
Continuous
 62
   212
100
AcDbLine
 10
304.31157
 20
140.695756
 30
0.0
 11
304.31157
 21
136.695756
 31
0.0
  0
LINE
  5
119
100
AcDbEntity
  8
18
370
    30
  6
Continuous
 62
   212
100
AcDbLine
 10
295.31157
 20
136.695756
 30
0.0
 11
295.31157
 21
140.695756
 31
0.0
  0
LINE
  5
11A
100
AcDbEntity
  8
18
370
    30
  6
Continuous
 62
   212
100
AcDbLine
 10
346.930365
 20
140.695756
 30
0.0
 11
346.930365
 21
136.695756
 31
0.0
  0
LINE
  5
11B
100
AcDbEntity
  8
18
370
    30
  6
Continuous
 62
   212
100
AcDbLine
 10
355.930365
 20
136.695756
 30
0.0
 11
355.930365
 21
140.695756
 31
0.0
  0
ENDBLK
  5
11C
100
AcDbEntity
  8
0
100
AcDbBlockEnd
  0
BLOCK
  5
11F
100
AcDbEntity
  8
0
370
     9
  6
Continuous
 62
     7
100
AcDbBlockBegin
  2
*G17
 70
     0
 10
0.0
 20
0.0
 30
0.0
  3
*G17
  1

  0
LINE
  5
120
100
AcDbEntity
  8
18
370
    30
  6
Continuous
 62
   212
100
AcDbLine
 10
181.74144
 20
135.695756
 30
0.0
 11
181.74144
 21
133.695756
 31
0.0
  0
LINE
  5
121
100
AcDbEntity
  8
18
370
    30
  6
Continuous
 62
   212
100
AcDbLine
 10
181.74144
 20
133.695756
 30
0.0
 11
231.207709
 21
133.695756
 31
0.0
  0
LINE
  5
122
100
AcDbEntity
  8
18
370
    30
  6
Continuous
 62
   212
100
AcDbLine
 10
231.207709
 20
133.695756
 30
0.0
 11
231.207709
 21
135.695756
 31
0.0
  0
LINE
  5
123
100
AcDbEntity
  8
18
370
    30
  6
Continuous
 62
   212
100
AcDbLine
 10
208.098582
 20
133.695756
 30
0.0
 11
208.098582
 21
130.695755
 31
0.0
  0
LINE
  5
124
100
AcDbEntity
  8
18
370
    30
  6
Continuous
 62
   212
100
AcDbLine
 10
206.098582
 20
130.695755
 30
0.0
 11
206.098582
 21
133.695756
 31
0.0
  0
LINE
  5
125
100
AcDbEntity
  8
18
370
    30
  6
Continuous
 62
   212
100
AcDbLine
 10
224.098582
 20
133.695756
 30
0.0
 11
224.098582
 21
130.695755
 31
0.0
  0
LINE
  5
126
100
AcDbEntity
  8
18
370
    30
  6
Continuous
 62
   212
100
AcDbLine
 10
222.098582
 20
130.695755
 30
0.0
 11
222.098582
 21
133.695756
 31
0.0
  0
LINE
  5
127
100
AcDbEntity
  8
18
370
    30
  6
Continuous
 62
   212
100
AcDbLine
 10
190.098582
 20
133.695756
 30
0.0
 11
190.098582
 21
130.695755
 31
0.0
  0
LINE
  5
128
100
AcDbEntity
  8
18
370
    30
  6
Continuous
 62
   212
100
AcDbLine
 10
192.098582
 20
130.695755
 30
0.0
 11
192.098582
 21
133.695756
 31
0.0
  0
LINE
  5
129
100
AcDbEntity
  8
18
370
    30
  6
Continuous
 62
   212
100
AcDbLine
 10
190.098582
 20
130.695756
 30
0.0
 11
192.098582
 21
130.695756
 31
0.0
  0
LINE
  5
12A
100
AcDbEntity
  8
18
370
    30
  6
Continuous
 62
   212
100
AcDbLine
 10
206.098582
 20
130.695756
 30
0.0
 11
208.098582
 21
130.695756
 31
0.0
  0
LINE
  5
12B
100
AcDbEntity
  8
18
370
    30
  6
Continuous
 62
   212
100
AcDbLine
 10
222.098582
 20
130.695756
 30
0.0
 11
224.098582
 21
130.695756
 31
0.0
  0
LINE
  5
12C
100
AcDbEntity
  8
18
370
    30
  6
Continuous
 62
   212
100
AcDbLine
 10
164.598582
 20
136.695756
 30
0.0
 11
164.598582
 21
135.695756
 31
0.0
  0
LINE
  5
12D
100
AcDbEntity
  8
18
370
    30
  6
Continuous
 62
   212
100
AcDbLine
 10
261.098582
 20
135.695756
 30
0.0
 11
261.098582
 21
124.695756
 31
0.0
  0
LINE
  5
12E
100
AcDbEntity
  8
18
370
    30
  6
Continuous
 62
   212
100
AcDbLine
 10
261.098582
 20
124.695756
 30
0.0
 11
153.098583
 21
124.695756
 31
0.0
  0
LINE
  5
12F
100
AcDbEntity
  8
18
370
    30
  6
Continuous
 62
   212
100
AcDbLine
 10
153.098583
 20
135.695756
 30
0.0
 11
153.098583
 21
124.695756
 31
0.0
  0
LINE
  5
130
100
AcDbEntity
  8
18
370
    30
  6
Continuous
 62
   212
100
AcDbLine
 10
188.098582
 20
140.695756
 30
0.0
 11
226.098582
 21
140.695756
 31
0.0
  0
LINE
  5
131
100
AcDbEntity
  8
18
370
    30
  6
Continuous
 62
   212
100
AcDbLine
 10
249.598582
 20
135.695756
 30
0.0
 11
249.598582
 21
136.695756
 31
0.0
  0
LINE
  5
132
100
AcDbEntity
  8
18
370
    30
  6
Continuous
 62
   212
100
AcDbLine
 10
249.598582
 20
136.695756
 30
0.0
 11
164.598582
 21
136.695756
 31
0.0
  0
LINE
  5
133
100
AcDbEntity
  8
18
370
    30
  6
Continuous
 62
   212
100
AcDbLine
 10
226.098582
 20
140.695756
 30
0.0
 11
226.098582
 21
136.695756
 31
0.0
  0
LINE
  5
134
100
AcDbEntity
  8
18
370
    30
  6
Continuous
 62
   212
100
AcDbLine
 10
188.098582
 20
140.695756
 30
0.0
 11
188.098582
 21
136.695756
 31
0.0
  0
LINE
  5
135
100
AcDbEntity
  8
18
370
    30
  6
Continuous
 62
   212
100
AcDbLine
 10
153.098583
 20
135.695756
 30
0.0
 11
181.74144
 21
135.695756
 31
0.0
  0
LINE
  5
136
100
AcDbEntity
  8
18
370
    30
  6
Continuous
 62
   212
100
AcDbLine
 10
231.207709
 20
135.695756
 30
0.0
 11
261.098582
 21
135.695756
 31
0.0
  0
ENDBLK
  5
137
100
AcDbEntity
  8
0
100
AcDbBlockEnd
  0
BLOCK
  5
13A
100
AcDbEntity
  8
0
370
     9
  6
Continuous
 62
     7
100
AcDbBlockBegin
  2
*G18
 70
     0
 10
0.0
 20
0.0
 30
0.0
  3
*G18
  1

  0
LINE
  5
13B
100
AcDbEntity
  8
18
370
    30
  6
Continuous
 62
   212
100
AcDbLine
 10
237.40798
 20
140.695756
 30
0.0
 11
228.40798
 21
140.695756
 31
0.0
  0
LINE
  5
13C
100
AcDbEntity
  8
18
370
    30
  6
Continuous
 62
   212
100
AcDbLine
 10
176.789185
 20
140.695756
 30
0.0
 11
185.789185
 21
140.695756
 31
0.0
  0
LINE
  5
13D
100
AcDbEntity
  8
18
370
    30
  6
Continuous
 62
   212
100
AcDbLine
 10
176.789185
 20
136.695756
 30
0.0
 11
176.789185
 21
140.695756
 31
0.0
  0
LINE
  5
13E
100
AcDbEntity
  8
18
370
    30
  6
Continuous
 62
   212
100
AcDbLine
 10
185.789185
 20
140.695756
 30
0.0
 11
185.789185
 21
136.695756
 31
0.0
  0
LINE
  5
13F
100
AcDbEntity
  8
18
370
    30
  6
Continuous
 62
   212
100
AcDbLine
 10
228.40798
 20
140.695756
 30
0.0
 11
228.40798
 21
136.695756
 31
0.0
  0
LINE
  5
140
100
AcDbEntity
  8
18
370
    30
  6
Continuous
 62
   212
100
AcDbLine
 10
237.40798
 20
136.695756
 30
0.0
 11
237.40798
 21
140.695756
 31
0.0
  0
ENDBLK
  5
141
100
AcDbEntity
  8
0
100
AcDbBlockEnd
  0
BLOCK
  5
144
100
AcDbEntity
  8
0
370
     9
  6
Continuous
 62
     7
100
AcDbBlockBegin
  2
*G19
 70
     0
 10
0.0
 20
0.0
 30
0.0
  3
*G19
  1

  0
LINE
  5
145
100
AcDbEntity
  8
20
370
    30
  6
Continuous
 62
   250
100
AcDbLine
 10
165.426165
 20
70.506137
 30
0.0
 11
161.598583
 21
110.695756
 31
0.0
  0
ARC
  5
146
100
AcDbEntity
  8
20
370
    30
  6
Continuous
 62
   250
100
AcDbCircle
 10
167.417156
 20
70.695756
 30
0.0
 40
2.0
100
AcDbArc
 50
-174.559668
 51
-90.0
  0
LINE
  5
147
100
AcDbEntity
  8
20
370
    30
  6
Continuous
 62
   250
100
AcDbLine
 10
167.417156
 20
68.695756
 30
0.0
 11
246.780009
 21
68.695756
 31
0.0
  0
ARC
  5
148
100
AcDbEntity
  8
20
370
    30
  6
Continuous
 62
   250
100
AcDbCircle
 10
246.780009
 20
70.695756
 30
0.0
 40
2.0
100
AcDbArc
 50
-90.0
 51
-5.440332
  0
ENDBLK
  5
149
100
AcDbEntity
  8
0
100
AcDbBlockEnd
  0
BLOCK
  5
14C
100
AcDbEntity
  8
0
370
     9
  6
Continuous
 62
     7
100
AcDbBlockBegin
  2
*G20
 70
     0
 10
0.0
 20
0.0
 30
0.0
  3
*G20
  1

  0
LINE
  5
14D
100
AcDbEntity
  8
20
370
    30
  6
Continuous
 62
   250
100
AcDbLine
 10
248.771
 20
70.506137
 30
0.0
 11
252.598583
 21
110.695756
 31
0.0
  0
ENDBLK
  5
14E
100
AcDbEntity
  8
0
100
AcDbBlockEnd
  0
BLOCK
  5
158
100
AcDbEntity
  8
0
370
     9
  6
Continuous
 62
     7
100
AcDbBlockBegin
  2
*G21
 70
     0
 10
0.0
 20
0.0
 30
0.0
  3
*G21
  1

  0
LINE
  5
159
100
AcDbEntity
  8
20
370
    30
  6
Continuous
 62
   250
100
AcDbLine
 10
157.512796
 20
111.281542
 30
0.0
 11
153.684369
 21
115.109969
 31
0.0
  0
LINE
  5
15A
100
AcDbEntity
  8
20
370
    30
  6
Continuous
 62
   250
100
AcDbLine
 10
161.596714
 20
110.695756
 30
0.0
 11
158.92701
 21
110.695756
 31
0.0
  0
ARC
  5
15B
100
AcDbEntity
  8
20
370
    30
  6
Continuous
 62
   250
100
AcDbCircle
 10
158.92701
 20
112.695756
 30
0.0
 40
2.0
100
AcDbArc
 50
-135.0
 51
-90.0
  0
ENDBLK
  5
15C
100
AcDbEntity
  8
0
100
AcDbBlockEnd
  0
BLOCK
  5
15F
100
AcDbEntity
  8
0
370
     9
  6
Continuous
 62
     7
100
AcDbBlockBegin
  2
*G22
 70
     0
 10
0.0
 20
0.0
 30
0.0
  3
*G22
  1

  0
LINE
  5
160
100
AcDbEntity
  8
18
370
    30
  6
Continuous
 62
   212
100
AcDbLine
 10
51.469163
 20
140.695756
 30
0.0
 11
89.469163
 21
140.695756
 31
0.0
  0
LINE
  5
161
100
AcDbEntity
  8
18
370
    30
  6
Continuous
 62
   212
100
AcDbLine
 10
51.469163
 20
140.695756
 30
0.0
 11
51.469163
 21
136.695756
 31
0.0
  0
LINE
  5
162
100
AcDbEntity
  8
18
370
    30
  6
Continuous
 62
   212
100
AcDbLine
 10
89.469163
 20
140.695756
 30
0.0
 11
89.469163
 21
136.695756
 31
0.0
  0
LINE
  5
163
100
AcDbEntity
  8
18
370
    30
  6
Continuous
 62
   212
100
AcDbLine
 10
35.469163
 20
135.695756
 30
0.0
 11
105.469164
 21
135.695756
 31
0.0
  0
LINE
  5
164
100
AcDbEntity
  8
18
370
    30
  6
Continuous
 62
   212
100
AcDbLine
 10
112.969163
 20
133.695756
 30
0.0
 11
112.969163
 21
136.695756
 31
0.0
  0
LINE
  5
165
100
AcDbEntity
  8
18
370
    30
  6
Continuous
 62
   212
100
AcDbLine
 10
35.469163
 20
124.695756
 30
0.0
 11
105.469164
 21
124.695756
 31
0.0
  0
LINE
  5
166
100
AcDbEntity
  8
18
370
    30
  6
Continuous
 62
   212
100
AcDbLine
 10
105.469164
 20
124.695756
 30
0.0
 11
105.469164
 21
135.695756
 31
0.0
  0
LINE
  5
167
100
AcDbEntity
  8
18
370
    30
  6
Continuous
 62
   212
100
AcDbLine
 10
35.469163
 20
124.695756
 30
0.0
 11
35.469163
 21
135.695756
 31
0.0
  0
LINE
  5
168
100
AcDbEntity
  8
18
370
    30
  6
Continuous
 62
   212
100
AcDbLine
 10
32.469163
 20
133.695756
 30
0.0
 11
35.469163
 21
130.695756
 31
0.0
  0
LINE
  5
169
100
AcDbEntity
  8
18
370
    30
  6
Continuous
 62
   212
100
AcDbLine
 10
105.469164
 20
130.695756
 30
0.0
 11
108.469164
 21
133.695756
 31
0.0
  0
LINE
  5
16A
100
AcDbEntity
  8
18
370
    30
  6
Continuous
 62
   212
100
AcDbLine
 10
27.969163
 20
133.695756
 30
0.0
 11
35.469163
 21
133.695756
 31
0.0
  0
LINE
  5
16B
100
AcDbEntity
  8
18
370
    30
  6
Continuous
 62
   212
100
AcDbLine
 10
112.969163
 20
133.695756
 30
0.0
 11
105.469164
 21
133.695756
 31
0.0
  0
LINE
  5
16C
100
AcDbEntity
  8
18
370
    30
  6
Continuous
 62
   212
100
AcDbLine
 10
27.969163
 20
136.695756
 30
0.0
 11
27.969163
 21
133.695756
 31
0.0
  0
LINE
  5
16D
100
AcDbEntity
  8
18
370
    30
  6
Continuous
 62
   212
100
AcDbLine
 10
112.969163
 20
136.695756
 30
0.0
 11
27.969163
 21
136.695756
 31
0.0
  0
ENDBLK
  5
16E
100
AcDbEntity
  8
0
100
AcDbBlockEnd
  0
BLOCK
  5
171
100
AcDbEntity
  8
0
370
     9
  6
Continuous
 62
     7
100
AcDbBlockBegin
  2
*G23
 70
     0
 10
0.0
 20
0.0
 30
0.0
  3
*G23
  1

  0
LINE
  5
172
100
AcDbEntity
  8
20
370
    30
  6
Continuous
 62
   250
100
AcDbLine
 10
154.598582
 20
124.695756
 30
0.0
 11
154.598582
 21
124.195756
 31
0.0
  0
ENDBLK
  5
173
100
AcDbEntity
  8
0
100
AcDbBlockEnd
  0
BLOCK
  5
176
100
AcDbEntity
  8
0
370
     9
  6
Continuous
 62
     7
100
AcDbBlockBegin
  2
*G24
 70
     0
 10
0.0
 20
0.0
 30
0.0
  3
*G24
  1

  0
LINE
  5
177
100
AcDbEntity
  8
20
370
    30
  6
Continuous
 62
   250
100
AcDbLine
 10
259.598583
 20
124.695756
 30
0.0
 11
259.598583
 21
124.195756
 31
0.0
  0
ENDBLK
  5
178
100
AcDbEntity
  8
0
100
AcDbBlockEnd
  0
BLOCK
  5
17B
100
AcDbEntity
  8
0
370
     9
  6
Continuous
 62
     7
100
AcDbBlockBegin
  2
*G25
 70
     0
 10
0.0
 20
0.0
 30
0.0
  3
*G25
  1

  0
LINE
  5
17C
100
AcDbEntity
  8
20
370
    30
  6
Continuous
 62
   250
100
AcDbLine
 10
103.969163
 20
124.695756
 30
0.0
 11
103.969163
 21
124.195756
 31
0.0
  0
LINE
  5
17D
100
AcDbEntity
  8
20
370
    30
  6
Continuous
 62
   250
100
AcDbLine
 10
36.969163
 20
124.695756
 30
0.0
 11
36.969163
 21
124.195756
 31
0.0
  0
ENDBLK
  5
17E
100
AcDbEntity
  8
0
100
AcDbBlockEnd
  0
BLOCK
  5
181
100
AcDbEntity
  8
0
370
     9
  6
Continuous
 62
     7
100
AcDbBlockBegin
  2
*G26
 70
     0
 10
0.0
 20
0.0
 30
0.0
  3
*G26
  1

  0
LINE
  5
182
100
AcDbEntity
  8
20
370
     9
  6
DOT
 62
   250
100
AcDbLine
 10
293.120968
 20
116.024183
 30
0.0
 11
296.449395
 21
112.695756
 31
0.0
  0
LINE
  5
183
100
AcDbEntity
  8
20
370
     9
  6
DOT
 62
   250
100
AcDbLine
 10
354.792541
 20
112.695756
 30
0.0
 11
358.120968
 21
116.024183
 31
0.0
  0
LINE
  5
184
100
AcDbEntity
  8
20
370
     9
  6
DOT
 62
   250
100
AcDbLine
 10
293.120968
 20
124.695756
 30
0.0
 11
293.120968
 21
116.024183
 31
0.0
  0
LINE
  5
185
100
AcDbEntity
  8
20
370
     9
  6
DOT
 62
   250
100
AcDbLine
 10
358.120968
 20
124.695756
 30
0.0
 11
358.120968
 21
116.024183
 31
0.0
  0
ENDBLK
  5
186
100
AcDbEntity
  8
0
100
AcDbBlockEnd
  0
BLOCK
  5
189
100
AcDbEntity
  8
0
370
     9
  6
Continuous
 62
     7
100
AcDbBlockBegin
  2
*G27
 70
     0
 10
0.0
 20
0.0
 30
0.0
  3
*G27
  1

  0
LINE
  5
18A
100
AcDbEntity
  8
20
370
    30
  6
Continuous
 62
   250
100
AcDbLine
 10
292.120968
 20
124.695756
 30
0.0
 11
292.120968
 21
124.195756
 31
0.0
  0
LINE
  5
18B
100
AcDbEntity
  8
20
370
    30
  6
Continuous
 62
   250
100
AcDbLine
 10
359.120968
 20
124.695756
 30
0.0
 11
359.120968
 21
124.195756
 31
0.0
  0
ENDBLK
  5
18C
100
AcDbEntity
  8
0
100
AcDbBlockEnd
  0
BLOCK
  5
18F
100
AcDbEntity
  8
0
370
     9
  6
Continuous
 62
     7
100
AcDbBlockBegin
  2
*G28
 70
     0
 10
0.0
 20
0.0
 30
0.0
  3
*G28
  1

  0
LINE
  5
190
100
AcDbEntity
  8
20
370
     9
  6
DOT
 62
   250
100
AcDbLine
 10
354.792541
 20
112.695756
 30
0.0
 11
296.449395
 21
112.695756
 31
0.0
  0
ENDBLK
  5
191
100
AcDbEntity
  8
0
100
AcDbBlockEnd
  0
BLOCK
  5
194
100
AcDbEntity
  8
1
370
     9
  6
Continuous
 62
     7
100
AcDbBlockBegin
  2
*D29
 70
     0
 10
0.0
 20
0.0
 30
0.0
  3
*D29
  1

  0
LINE
  5
195
100
AcDbEntity
  8
1
370
     9
  6
Continuous
 62
     7
100
AcDbLine
 10
138.45733
 20
68.695756
 30
0.0
 11
138.45733
 21
136.695756
 31
0.0
  0
LINE
  5
196
100
AcDbEntity
  8
1
370
     9
  6
Continuous
 62
     7
100
AcDbLine
 10
137.95733
 20
68.695756
 30
0.0
 11
165.098583
 21
68.695756
 31
0.0
  0
LINE
  5
197
100
AcDbEntity
  8
1
370
     9
  6
Continuous
 62
     7
100
AcDbLine
 10
137.95733
 20
136.695756
 30
0.0
 11
164.098582
 21
136.695756
 31
0.0
  0
CIRCLE
  5
198
100
AcDbEntity
  8
1
370
     9
  6
Continuous
 62
     7
100
AcDbCircle
 10
138.45733
 20
68.695756
 30
0.0
 40
0.3
  0
CIRCLE
  5
199
100
AcDbEntity
  8
1
370
     9
  6
Continuous
 62
     7
100
AcDbCircle
 10
138.45733
 20
68.695756
 30
0.0
 40
0.15
  0
CIRCLE
  5
19A
100
AcDbEntity
  8
1
370
     9
  6
Continuous
 62
     7
100
AcDbCircle
 10
138.45733
 20
136.695756
 30
0.0
 40
0.3
  0
CIRCLE
  5
19B
100
AcDbEntity
  8
1
370
     9
  6
Continuous
 62
     7
100
AcDbCircle
 10
138.45733
 20
136.695756
 30
0.0
 40
0.15
  0
TEXT
  5
19C
100
AcDbEntity
  8
1
370
     9
  6
Continuous
 62
     7
100
AcDbText
 10
138.45733
 20
100.695756
 30
0.0
 40
4.0
  1
68
 50
90.0
 41
0.5
 11
138.45733
 21
100.695756
 31
0.0
100
AcDbText
 73
     1
  0
ENDBLK
  5
19D
100
AcDbEntity
  8
1
370
     9
  6
Continuous
 62
     7
100
AcDbBlockEnd
  0
BLOCK
  5
1A0
100
AcDbEntity
  8
12
370
     9
  6
Continuous
 62
   136
100
AcDbBlockBegin
  2
*G30
 70
     0
 10
0.0
 20
0.0
 30
0.0
  3
*G30
  1

  0
LINE
  5
1A1
100
AcDbEntity
  8
12
370
    30
  6
Continuous
 62
   136
100
AcDbLine
 10
158.098582
 20
213.71215
 30
0.0
 11
155.348582
 21
212.124437
 31
0.0
  0
LINE
  5
1A2
100
AcDbEntity
  8
12
370
    30
  6
Continuous
 62
   136
100
AcDbLine
 10
155.348582
 20
212.124437
 30
0.0
 11
155.348582
 21
208.949011
 31
0.0
  0
LINE
  5
1A3
100
AcDbEntity
  8
12
370
    30
  6
Continuous
 62
   136
100
AcDbLine
 10
155.348582
 20
208.949011
 30
0.0
 11
158.098582
 21
207.361297
 31
0.0
  0
LINE
  5
1A4
100
AcDbEntity
  8
12
370
    30
  6
Continuous
 62
   136
100
AcDbLine
 10
158.098582
 20
207.361297
 30
0.0
 11
160.848582
 21
208.949011
 31
0.0
  0
LINE
  5
1A5
100
AcDbEntity
  8
12
370
    30
  6
Continuous
 62
   136
100
AcDbLine
 10
160.848582
 20
208.949011
 30
0.0
 11
160.848582
 21
212.124437
 31
0.0
  0
LINE
  5
1A6
100
AcDbEntity
  8
12
370
    30
  6
Continuous
 62
   136
100
AcDbLine
 10
160.848582
 20
212.124437
 30
0.0
 11
158.098582
 21
213.71215
 31
0.0
  0
CIRCLE
  5
1A7
100
AcDbEntity
  8
12
370
    30
  6
Continuous
 62
   136
100
AcDbCircle
 10
158.098582
 20
210.536724
 30
0.0
 40
1.2
  0
CIRCLE
  5
1A8
100
AcDbEntity
  8
12
370
    30
  6
Continuous
 62
   136
100
AcDbCircle
 10
158.098582
 20
210.536724
 30
0.0
 40
1.5
  0
LINE
  5
1A9
100
AcDbEntity
  8
12
370
     9
  6
CENTER
 62
   136
100
AcDbLine
 10
158.098582
 20
207.131877
 30
0.0
 11
158.098582
 21
213.941571
 31
0.0
  0
LINE
  5
1AA
100
AcDbEntity
  8
12
370
     9
  6
CENTER
 62
   136
100
AcDbLine
 10
161.50343
 20
210.536724
 30
0.0
 11
154.693735
 21
210.536724
 31
0.0
  0
ENDBLK
  5
1AB
100
AcDbEntity
  8
0
100
AcDbBlockEnd
  0
BLOCK
  5
1AE
100
AcDbEntity
  8
0
370
     9
  6
Continuous
 62
     7
100
AcDbBlockBegin
  2
*G31
 70
     0
 10
0.0
 20
0.0
 30
0.0
  3
*G31
  1

  0
CIRCLE
  5
1AF
100
AcDbEntity
  8
18
370
    30
  6
Continuous
 62
   212
100
AcDbCircle
 10
158.098582
 20
210.536724
 30
0.0
 40
1.75
  0
CIRCLE
  5
1B0
100
AcDbEntity
  8
18
370
    30
  6
Continuous
 62
   212
100
AcDbCircle
 10
232.90798
 20
210.536724
 30
0.0
 40
4.5
  0
CIRCLE
  5
1B1
100
AcDbEntity
  8
18
370
    30
  6
Continuous
 62
   212
100
AcDbCircle
 10
181.289185
 20
210.536724
 30
0.0
 40
4.5
  0
CIRCLE
  5
1B2
100
AcDbEntity
  8
18
370
    30
  6
Continuous
 62
   212
100
AcDbCircle
 10
207.098583
 20
184.727326
 30
0.0
 40
4.5
  0
CIRCLE
  5
1B3
100
AcDbEntity
  8
18
370
    30
  6
Continuous
 62
   212
100
AcDbCircle
 10
207.098583
 20
236.346121
 30
0.0
 40
4.5
  0
ARC
  5
1B4
100
AcDbEntity
  8
18
370
    30
  6
Continuous
 62
   212
100
AcDbCircle
 10
161.098583
 20
210.536724
 30
0.0
 40
100.0
100
AcDbArc
 50
-11.965172
 51
11.965172
  0
ARC
  5
1B5
100
AcDbEntity
  8
18
370
    30
  6
Continuous
 62
   212
100
AcDbCircle
 10
241.317034
 20
227.536724
 30
0.0
 40
18.0
100
AcDbArc
 50
11.965172
 51
90.0
  0
ARC
  5
1B6
100
AcDbEntity
  8
18
370
    30
  6
Continuous
 62
   212
100
AcDbCircle
 10
241.317034
 20
193.536724
 30
0.0
 40
18.0
100
AcDbArc
 50
-90.0
 51
-11.965172
  0
ARC
  5
1B7
100
AcDbEntity
  8
18
370
    30
  6
Continuous
 62
   212
100
AcDbCircle
 10
188.098583
 20
210.536724
 30
0.0
 40
35.0
100
AcDbArc
 50
99.532179
 51
-99.532179
  0
ARC
  5
1B8
100
AcDbEntity
  8
18
370
     9
  6
DOT
 62
   212
100
AcDbCircle
 10
241.317034
 20
193.536724
 30
0.0
 40
15.5
100
AcDbArc
 50
-90.0
 51
-11.965172
  0
ARC
  5
1B9
100
AcDbEntity
  8
18
370
     9
  6
DOT
 62
   212
100
AcDbCircle
 10
241.317034
 20
227.536724
 30
0.0
 40
15.5
100
AcDbArc
 50
11.965172
 51
90.0
  0
LINE
  5
1BA
100
AcDbEntity
  8
18
370
     9
  6
DOT
 62
   212
100
AcDbLine
 10
241.317034
 20
178.036724
 30
0.0
 11
234.48471
 21
178.036724
 31
0.0
  0
LINE
  5
1BB
100
AcDbEntity
  8
18
370
     9
  6
DOT
 62
   212
100
AcDbLine
 10
234.48471
 20
243.036724
 30
0.0
 11
241.317034
 21
243.036724
 31
0.0
  0
ARC
  5
1BC
100
AcDbEntity
  8
18
370
     9
  6
DOT
 62
   212
100
AcDbCircle
 10
188.098583
 20
210.536724
 30
0.0
 40
32.5
100
AcDbArc
 50
108.359592
 51
174.703619
  0
ARC
  5
1BD
100
AcDbEntity
  8
18
370
     9
  6
DOT
 62
   212
100
AcDbCircle
 10
188.098583
 20
210.536724
 30
0.0
 40
32.5
100
AcDbArc
 50
-174.703619
 51
-108.359592
  0
LINE
  5
1BE
100
AcDbEntity
  8
18
370
     9
  6
Continuous
 62
   212
100
AcDbLine
 10
155.298582
 20
213.536724
 30
0.0
 11
155.298582
 21
207.536724
 31
0.0
  0
LINE
  5
1BF
100
AcDbEntity
  8
18
370
    30
  6
Continuous
 62
   212
100
AcDbLine
 10
156.499951
 20
213.536724
 30
0.0
 11
156.499951
 21
213.075302
 31
0.0
  0
LINE
  5
1C0
100
AcDbEntity
  8
18
370
    30
  6
Continuous
 62
   212
100
AcDbLine
 10
156.499951
 20
207.536724
 30
0.0
 11
156.499951
 21
207.998146
 31
0.0
  0
ARC
  5
1C1
100
AcDbEntity
  8
18
370
    30
  6
Continuous
 62
   212
100
AcDbCircle
 10
158.098582
 20
210.536724
 30
0.0
 40
3.0
100
AcDbArc
 50
-126.869898
 51
126.869898
  0
LINE
  5
1C2
100
AcDbEntity
  8
18
370
     9
  6
Continuous
 62
   212
100
AcDbLine
 10
258.898583
 20
213.536724
 30
0.0
 11
258.898583
 21
207.536724
 31
0.0
  0
LINE
  5
1C3
100
AcDbEntity
  8
18
370
    30
  6
Continuous
 62
   212
100
AcDbLine
 10
257.697214
 20
213.536724
 30
0.0
 11
257.697214
 21
213.075302
 31
0.0
  0
LINE
  5
1C4
100
AcDbEntity
  8
18
370
    30
  6
Continuous
 62
   212
100
AcDbLine
 10
257.697214
 20
207.536724
 30
0.0
 11
257.697214
 21
207.998146
 31
0.0
  0
ARC
  5
1C5
100
AcDbEntity
  8
18
370
    30
  6
Continuous
 62
   212
100
AcDbCircle
 10
256.098583
 20
210.536724
 30
0.0
 40
3.0
100
AcDbArc
 50
53.130102
 51
-53.130102
  0
ARC
  5
1C6
100
AcDbEntity
  8
18
370
     9
  6
DOT
 62
   212
100
AcDbCircle
 10
161.098583
 20
210.536724
 30
0.0
 40
97.5
100
AcDbArc
 50
-11.965172
 51
-1.763225
  0
ARC
  5
1C7
100
AcDbEntity
  8
18
370
     9
  6
DOT
 62
   212
100
AcDbCircle
 10
161.098583
 20
210.536724
 30
0.0
 40
97.5
100
AcDbArc
 50
1.763225
 51
11.965172
  0
CIRCLE
  5
1C8
100
AcDbEntity
  8
18
370
    30
  6
Continuous
 62
   212
100
AcDbCircle
 10
207.098583
 20
210.536724
 30
0.0
 40
42.5
  0
ARC
  5
1C9
100
AcDbEntity
  8
18
370
    30
  6
Continuous
 62
   212
100
AcDbCircle
 10
207.098583
 20
210.536724
 30
0.0
 40
40.0
100
AcDbArc
 50
-130.757807
 51
-49.242193
  0
ARC
  5
1CA
100
AcDbEntity
  8
18
370
    30
  6
Continuous
 62
   212
100
AcDbCircle
 10
207.098583
 20
210.536724
 30
0.0
 40
40.0
100
AcDbArc
 50
49.242193
 51
130.757807
  0
ARC
  5
1CB
100
AcDbEntity
  8
18
370
    30
  6
Continuous
 62
   212
100
AcDbCircle
 10
207.098583
 20
210.536724
 30
0.0
 40
40.0
100
AcDbArc
 50
139.242193
 51
-139.242193
  0
ARC
  5
1CC
100
AcDbEntity
  8
18
370
    30
  6
Continuous
 62
   212
100
AcDbCircle
 10
207.098583
 20
210.536724
 30
0.0
 40
40.0
100
AcDbArc
 50
-40.757807
 51
40.757807
  0
CIRCLE
  5
1CD
100
AcDbEntity
  8
18
370
    30
  6
Continuous
 62
   212
100
AcDbCircle
 10
181.289185
 20
236.346121
 30
0.0
 40
2.25
  0
LINE
  5
1CE
100
AcDbEntity
  8
18
370
     9
  6
CENTER
 62
   212
100
AcDbLine
 10
175.134565
 20
236.346121
 30
0.0
 11
187.443805
 21
236.346121
 31
0.0
  0
LINE
  5
1CF
100
AcDbEntity
  8
18
370
     9
  6
CENTER
 62
   212
100
AcDbLine
 10
181.289185
 20
230.191501
 30
0.0
 11
181.289185
 21
242.500741
 31
0.0
  0
CIRCLE
  5
1D0
100
AcDbEntity
  8
18
370
    30
  6
Continuous
 62
   212
100
AcDbCircle
 10
232.90798
 20
236.346121
 30
0.0
 40
2.25
  0
LINE
  5
1D1
100
AcDbEntity
  8
18
370
     9
  6
CENTER
 62
   212
100
AcDbLine
 10
226.75336
 20
236.346121
 30
0.0
 11
239.0626
 21
236.346121
 31
0.0
  0
LINE
  5
1D2
100
AcDbEntity
  8
18
370
     9
  6
CENTER
 62
   212
100
AcDbLine
 10
232.90798
 20
230.191501
 30
0.0
 11
232.90798
 21
242.500741
 31
0.0
  0
CIRCLE
  5
1D3
100
AcDbEntity
  8
18
370
    30
  6
Continuous
 62
   212
100
AcDbCircle
 10
232.90798
 20
184.727326
 30
0.0
 40
2.25
  0
LINE
  5
1D4
100
AcDbEntity
  8
18
370
     9
  6
CENTER
 62
   212
100
AcDbLine
 10
226.75336
 20
184.727326
 30
0.0
 11
239.0626
 21
184.727326
 31
0.0
  0
LINE
  5
1D5
100
AcDbEntity
  8
18
370
     9
  6
CENTER
 62
   212
100
AcDbLine
 10
232.90798
 20
178.572706
 30
0.0
 11
232.90798
 21
190.881946
 31
0.0
  0
CIRCLE
  5
1D6
100
AcDbEntity
  8
18
370
    30
  6
Continuous
 62
   212
100
AcDbCircle
 10
181.289185
 20
184.727326
 30
0.0
 40
2.25
  0
LINE
  5
1D7
100
AcDbEntity
  8
18
370
     9
  6
CENTER
 62
   212
100
AcDbLine
 10
175.134565
 20
184.727326
 30
0.0
 11
187.443805
 21
184.727326
 31
0.0
  0
LINE
  5
1D8
100
AcDbEntity
  8
18
370
     9
  6
CENTER
 62
   212
100
AcDbLine
 10
181.289185
 20
178.572706
 30
0.0
 11
181.289185
 21
190.881946
 31
0.0
  0
LINE
  5
1D9
100
AcDbEntity
  8
18
370
     9
  6
CENTER
 62
   212
100
AcDbLine
 10
207.098583
 20
163.299032
 30
0.0
 11
207.098583
 21
256.290826
 31
0.0
  0
ARC
  5
1DA
100
AcDbEntity
  8
18
370
    30
  6
Continuous
 62
   212
100
AcDbCircle
 10
181.289185
 20
184.727326
 30
0.0
 40
4.5
100
AcDbArc
 50
-93.88791
 51
-176.11209
  0
ARC
  5
1DB
100
AcDbEntity
  8
18
370
    30
  6
Continuous
 62
   212
100
AcDbCircle
 10
181.289185
 20
236.346121
 30
0.0
 40
4.5
100
AcDbArc
 50
176.11209
 51
93.88791
  0
ARC
  5
1DC
100
AcDbEntity
  8
18
370
    30
  6
Continuous
 62
   212
100
AcDbCircle
 10
232.90798
 20
236.346121
 30
0.0
 40
4.5
100
AcDbArc
 50
86.11209
 51
3.88791
  0
ARC
  5
1DD
100
AcDbEntity
  8
18
370
    30
  6
Continuous
 62
   212
100
AcDbCircle
 10
232.90798
 20
184.727326
 30
0.0
 40
4.5
100
AcDbArc
 50
-3.88791
 51
-86.11209
  0
LINE
  5
1DE
100
AcDbEntity
  8
18
370
     9
  6
CENTER
 62
   212
100
AcDbLine
 10
145.166557
 20
210.536724
 30
0.0
 11
269.560536
 21
210.536724
 31
0.0
  0
CIRCLE
  5
1DF
100
AcDbEntity
  8
18
370
    30
  6
Continuous
 62
   212
100
AcDbCircle
 10
207.098583
 20
236.346121
 30
0.0
 40
2.25
  0
LINE
  5
1E0
100
AcDbEntity
  8
18
370
     9
  6
CENTER
 62
   212
100
AcDbLine
 10
200.943963
 20
236.346121
 30
0.0
 11
212.88643
 21
236.346121
 31
0.0
  0
CIRCLE
  5
1E1
100
AcDbEntity
  8
18
370
    30
  6
Continuous
 62
   212
100
AcDbCircle
 10
207.098583
 20
184.727326
 30
0.0
 40
2.25
  0
LINE
  5
1E2
100
AcDbEntity
  8
18
370
     9
  6
CENTER
 62
   212
100
AcDbLine
 10
200.943963
 20
184.727326
 30
0.0
 11
212.88643
 21
184.727326
 31
0.0
  0
CIRCLE
  5
1E3
100
AcDbEntity
  8
18
370
    30
  6
Continuous
 62
   212
100
AcDbCircle
 10
181.289185
 20
210.536724
 30
0.0
 40
2.25
  0
LINE
  5
1E4
100
AcDbEntity
  8
18
370
     9
  6
CENTER
 62
   212
100
AcDbLine
 10
181.289185
 20
204.382104
 30
0.0
 11
181.289185
 21
216.324571
 31
0.0
  0
CIRCLE
  5
1E5
100
AcDbEntity
  8
18
370
    30
  6
Continuous
 62
   212
100
AcDbCircle
 10
232.90798
 20
210.536724
 30
0.0
 40
2.25
  0
LINE
  5
1E6
100
AcDbEntity
  8
18
370
     9
  6
CENTER
 62
   212
100
AcDbLine
 10
232.90798
 20
204.382104
 30
0.0
 11
232.90798
 21
216.324571
 31
0.0
  0
LINE
  5
1E7
100
AcDbEntity
  8
18
370
     9
  6
CENTER
 62
   212
100
AcDbLine
 10
158.098582
 20
214.399483
 30
0.0
 11
158.098582
 21
206.698601
 31
0.0
  0
LINE
  5
1E8
100
AcDbEntity
  8
18
370
    30
  6
Continuous
 62
   212
100
AcDbLine
 10
241.317034
 20
245.536724
 30
0.0
 11
231.20771
 21
245.536724
 31
0.0
  0
LINE
  5
1E9
100
AcDbEntity
  8
18
370
    30
  6
Continuous
 62
   212
100
AcDbLine
 10
241.317034
 20
175.536724
 30
0.0
 11
231.20771
 21
175.536724
 31
0.0
  0
LINE
  5
1EA
100
AcDbEntity
  8
18
370
     9
  6
Continuous
 62
   212
100
AcDbLine
 10
156.298582
 20
213.536724
 30
0.0
 11
156.298582
 21
212.936724
 31
0.0
  0
LINE
  5
1EB
100
AcDbEntity
  8
18
370
    30
  6
Continuous
 62
   212
100
AcDbLine
 10
155.098582
 20
213.536724
 30
0.0
 11
155.098582
 21
207.536724
 31
0.0
  0
LINE
  5
1EC
100
AcDbEntity
  8
18
370
     9
  6
Continuous
 62
   212
100
AcDbLine
 10
156.298582
 20
207.536724
 30
0.0
 11
156.298582
 21
208.136724
 31
0.0
  0
LINE
  5
1ED
100
AcDbEntity
  8
18
370
    30
  6
Continuous
 62
   212
100
AcDbLine
 10
155.098582
 20
207.536724
 30
0.0
 11
156.499951
 21
207.536724
 31
0.0
  0
LINE
  5
1EE
100
AcDbEntity
  8
18
370
    30
  6
Continuous
 62
   212
100
AcDbLine
 10
155.098582
 20
213.536724
 30
0.0
 11
156.499951
 21
213.536724
 31
0.0
  0
LINE
  5
1EF
100
AcDbEntity
  8
18
370
     9
  6
CENTER
 62
   212
100
AcDbLine
 10
256.098583
 20
214.399483
 30
0.0
 11
256.098583
 21
206.698601
 31
0.0
  0
LINE
  5
1F0
100
AcDbEntity
  8
18
370
     9
  6
Continuous
 62
   212
100
AcDbLine
 10
257.898583
 20
213.536724
 30
0.0
 11
257.898583
 21
212.936724
 31
0.0
  0
LINE
  5
1F1
100
AcDbEntity
  8
18
370
    30
  6
Continuous
 62
   212
100
AcDbLine
 10
259.098583
 20
213.536724
 30
0.0
 11
259.098583
 21
207.536724
 31
0.0
  0
LINE
  5
1F2
100
AcDbEntity
  8
18
370
     9
  6
Continuous
 62
   212
100
AcDbLine
 10
257.898583
 20
207.536724
 30
0.0
 11
257.898583
 21
208.136724
 31
0.0
  0
LINE
  5
1F3
100
AcDbEntity
  8
18
370
    30
  6
Continuous
 62
   212
100
AcDbLine
 10
259.098583
 20
207.536724
 30
0.0
 11
257.697214
 21
207.536724
 31
0.0
  0
LINE
  5
1F4
100
AcDbEntity
  8
18
370
    30
  6
Continuous
 62
   212
100
AcDbLine
 10
259.098583
 20
213.536724
 30
0.0
 11
257.697214
 21
213.536724
 31
0.0
  0
CIRCLE
  5
1F5
100
AcDbEntity
  8
18
370
    30
  6
Continuous
 62
   212
100
AcDbCircle
 10
256.098583
 20
210.536724
 30
0.0
 40
1.75
  0
ENDBLK
  5
1F6
100
AcDbEntity
  8
0
100
AcDbBlockEnd
  0
BLOCK
  5
1F9
100
AcDbEntity
  8
0
370
     9
  6
Continuous
 62
     7
100
AcDbBlockBegin
  2
*G32
 70
     0
 10
0.0
 20
0.0
 30
0.0
  3
*G32
  1

  0
CIRCLE
  5
1FA
100
AcDbEntity
  8
18
370
    30
  6
Continuous
 62
   212
100
AcDbCircle
 10
207.098583
 20
210.536724
 30
0.0
 40
3.1
  0
LINE
  5
1FB
100
AcDbEntity
  8
18
370
     9
  6
CENTER
 62
   212
100
AcDbLine
 10
194.091879
 20
215.270777
 30
0.0
 11
189.414884
 21
216.973064
 31
0.0
  0
ARC
  5
1FC
100
AcDbEntity
  8
18
370
    30
  6
Continuous
 62
   212
100
AcDbCircle
 10
207.098583
 20
210.536724
 30
0.0
 40
5.5
100
AcDbArc
 50
133.136559
 51
-133.136559
  0
ARC
  5
1FD
100
AcDbEntity
  8
18
370
    30
  6
Continuous
 62
   212
100
AcDbCircle
 10
207.098583
 20
210.536724
 30
0.0
 40
5.5
100
AcDbArc
 50
-106.863441
 51
-13.136559
  0
ARC
  5
1FE
100
AcDbEntity
  8
18
370
    30
  6
Continuous
 62
   212
100
AcDbCircle
 10
207.098583
 20
210.536724
 30
0.0
 40
5.5
100
AcDbArc
 50
13.136559
 51
106.863441
  0
LINE
  5
1FF
100
AcDbEntity
  8
18
370
    30
  6
Continuous
 62
   212
100
AcDbLine
 10
203.338015
 20
214.550218
 30
0.0
 11
197.789759
 21
224.160079
 31
0.0
  0
LINE
  5
200
100
AcDbEntity
  8
18
370
    30
  6
Continuous
 62
   212
100
AcDbLine
 10
199.954823
 20
225.410079
 30
0.0
 11
205.503079
 21
215.800218
 31
0.0
  0
LINE
  5
201
100
AcDbEntity
  8
18
370
    30
  6
Continuous
 62
   212
100
AcDbLine
 10
212.454654
 20
211.786724
 30
0.0
 11
223.551166
 21
211.786724
 31
0.0
  0
LINE
  5
202
100
AcDbEntity
  8
18
370
    30
  6
Continuous
 62
   212
100
AcDbLine
 10
223.551166
 20
209.286724
 30
0.0
 11
212.454654
 21
209.286724
 31
0.0
  0
LINE
  5
203
100
AcDbEntity
  8
18
370
    30
  6
Continuous
 62
   212
100
AcDbLine
 10
205.503079
 20
205.27323
 30
0.0
 11
199.954823
 21
195.663369
 31
0.0
  0
LINE
  5
204
100
AcDbEntity
  8
18
370
    30
  6
Continuous
 62
   212
100
AcDbLine
 10
197.789759
 20
196.913369
 30
0.0
 11
203.338015
 21
206.52323
 31
0.0
  0
LINE
  5
205
100
AcDbEntity
  8
18
370
    30
  6
Continuous
 62
   212
100
AcDbLine
 10
192.878148
 20
218.905072
 30
0.0
 11
190.494447
 21
219.772668
 31
0.0
  0
LINE
  5
206
100
AcDbEntity
  8
18
370
    30
  6
Continuous
 62
   212
100
AcDbLine
 10
190.826028
 20
213.266916
 30
0.0
 11
188.442326
 21
214.134513
 31
0.0
  0
ENDBLK
  5
207
100
AcDbEntity
  8
0
100
AcDbBlockEnd
  0
BLOCK
  5
20E
100
AcDbEntity
  8
1
370
     9
  6
Continuous
 62
     7
100
AcDbBlockBegin
  2
*D33
 70
     0
 10
0.0
 20
0.0
 30
0.0
  3
*D33
  1

  0
LINE
  5
20F
100
AcDbEntity
  8
1
370
     9
  6
Continuous
 62
     7
100
AcDbLine
 10
261.098583
 20
153.9055
 30
0.0
 11
153.098583
 21
153.9055
 31
0.0
  0
LINE
  5
210
100
AcDbEntity
  8
1
370
     9
  6
Continuous
 62
     7
100
AcDbLine
 10
261.098583
 20
153.4055
 30
0.0
 11
261.098583
 21
210.036724
 31
0.0
  0
LINE
  5
211
100
AcDbEntity
  8
1
370
     9
  6
Continuous
 62
     7
100
AcDbLine
 10
153.098583
 20
153.4055
 30
0.0
 11
153.098583
 21
210.036724
 31
0.0
  0
CIRCLE
  5
212
100
AcDbEntity
  8
1
370
     9
  6
Continuous
 62
     7
100
AcDbCircle
 10
261.098583
 20
153.9055
 30
0.0
 40
0.3
  0
CIRCLE
  5
213
100
AcDbEntity
  8
1
370
     9
  6
Continuous
 62
     7
100
AcDbCircle
 10
261.098583
 20
153.9055
 30
0.0
 40
0.15
  0
CIRCLE
  5
214
100
AcDbEntity
  8
1
370
     9
  6
Continuous
 62
     7
100
AcDbCircle
 10
153.098583
 20
153.9055
 30
0.0
 40
0.3
  0
CIRCLE
  5
215
100
AcDbEntity
  8
1
370
     9
  6
Continuous
 62
     7
100
AcDbCircle
 10
153.098583
 20
153.9055
 30
0.0
 40
0.15
  0
TEXT
  5
216
100
AcDbEntity
  8
1
370
     9
  6
Continuous
 62
     7
100
AcDbText
 10
204.098583
 20
153.9055
 30
0.0
 40
4.0
  1
108
 41
0.5
 11
204.098583
 21
153.9055
 31
0.0
100
AcDbText
 73
     1
  0
ENDBLK
  5
217
100
AcDbEntity
  8
1
370
     9
  6
Continuous
 62
     7
100
AcDbBlockEnd
  0
BLOCK
  5
21A
100
AcDbEntity
  8
1
370
     9
  6
Continuous
 62
     7
100
AcDbBlockBegin
  2
*D34
 70
     0
 10
0.0
 20
0.0
 30
0.0
  3
*D34
  1

  0
LINE
  5
21B
100
AcDbEntity
  8
1
370
     9
  6
Continuous
 62
     7
100
AcDbLine
 10
134.152496
 20
168.036724
 30
0.0
 11
134.152496
 21
253.036724
 31
0.0
  0
LINE
  5
21C
100
AcDbEntity
  8
1
370
     9
  6
Continuous
 62
     7
100
AcDbLine
 10
133.652496
 20
168.036724
 30
0.0
 11
206.598583
 21
168.036724
 31
0.0
  0
LINE
  5
21D
100
AcDbEntity
  8
1
370
     9
  6
Continuous
 62
     7
100
AcDbLine
 10
133.652496
 20
253.036724
 30
0.0
 11
206.598583
 21
253.036724
 31
0.0
  0
CIRCLE
  5
21E
100
AcDbEntity
  8
1
370
     9
  6
Continuous
 62
     7
100
AcDbCircle
 10
134.152496
 20
168.036724
 30
0.0
 40
0.3
  0
CIRCLE
  5
21F
100
AcDbEntity
  8
1
370
     9
  6
Continuous
 62
     7
100
AcDbCircle
 10
134.152496
 20
168.036724
 30
0.0
 40
0.15
  0
CIRCLE
  5
220
100
AcDbEntity
  8
1
370
     9
  6
Continuous
 62
     7
100
AcDbCircle
 10
134.152496
 20
253.036724
 30
0.0
 40
0.3
  0
CIRCLE
  5
221
100
AcDbEntity
  8
1
370
     9
  6
Continuous
 62
     7
100
AcDbCircle
 10
134.152496
 20
253.036724
 30
0.0
 40
0.15
  0
TEXT
  5
222
100
AcDbEntity
  8
1
370
     9
  6
Continuous
 62
     7
100
AcDbText
 10
134.152496
 20
208.536724
 30
0.0
 40
4.0
  1
85
 50
90.0
 41
0.5
 11
134.152496
 21
208.536724
 31
0.0
100
AcDbText
 73
     1
  0
ENDBLK
  5
223
100
AcDbEntity
  8
1
370
     9
  6
Continuous
 62
     7
100
AcDbBlockEnd
  0
BLOCK
  5
226
100
AcDbEntity
  8
0
370
     9
  6
Continuous
 62
     7
100
AcDbBlockBegin
  2
*G35
 70
     0
 10
0.0
 20
0.0
 30
0.0
  3
*G35
  1

  0
LINE
  5
227
100
AcDbEntity
  8
18
370
    30
  6
Continuous
 62
   212
100
AcDbLine
 10
306.620967
 20
140.695756
 30
0.0
 11
344.620967
 21
140.695756
 31
0.0
  0
LINE
  5
228
100
AcDbEntity
  8
18
370
    30
  6
Continuous
 62
   212
100
AcDbLine
 10
306.620967
 20
140.695756
 30
0.0
 11
306.620967
 21
136.695756
 31
0.0
  0
LINE
  5
229
100
AcDbEntity
  8
18
370
    30
  6
Continuous
 62
   212
100
AcDbLine
 10
344.620967
 20
140.695756
 30
0.0
 11
344.620967
 21
136.695756
 31
0.0
  0
LINE
  5
22A
100
AcDbEntity
  8
18
370
    30
  6
Continuous
 62
   212
100
AcDbLine
 10
290.620967
 20
135.695756
 30
0.0
 11
360.620968
 21
135.695756
 31
0.0
  0
LINE
  5
22B
100
AcDbEntity
  8
18
370
    30
  6
Continuous
 62
   212
100
AcDbLine
 10
368.120967
 20
133.695756
 30
0.0
 11
368.120967
 21
136.695756
 31
0.0
  0
LINE
  5
22C
100
AcDbEntity
  8
18
370
    30
  6
Continuous
 62
   212
100
AcDbLine
 10
290.620967
 20
124.695756
 30
0.0
 11
360.620968
 21
124.695756
 31
0.0
  0
LINE
  5
22D
100
AcDbEntity
  8
18
370
    30
  6
Continuous
 62
   212
100
AcDbLine
 10
360.620968
 20
124.695756
 30
0.0
 11
360.620968
 21
135.695756
 31
0.0
  0
LINE
  5
22E
100
AcDbEntity
  8
18
370
    30
  6
Continuous
 62
   212
100
AcDbLine
 10
290.620967
 20
124.695756
 30
0.0
 11
290.620967
 21
135.695756
 31
0.0
  0
LINE
  5
22F
100
AcDbEntity
  8
18
370
    30
  6
Continuous
 62
   212
100
AcDbLine
 10
287.620967
 20
133.695756
 30
0.0
 11
290.620967
 21
130.695756
 31
0.0
  0
LINE
  5
230
100
AcDbEntity
  8
18
370
    30
  6
Continuous
 62
   212
100
AcDbLine
 10
360.620968
 20
130.695756
 30
0.0
 11
363.620968
 21
133.695756
 31
0.0
  0
LINE
  5
231
100
AcDbEntity
  8
18
370
    30
  6
Continuous
 62
   212
100
AcDbLine
 10
283.120967
 20
133.695756
 30
0.0
 11
290.620967
 21
133.695756
 31
0.0
  0
LINE
  5
232
100
AcDbEntity
  8
18
370
    30
  6
Continuous
 62
   212
100
AcDbLine
 10
368.120967
 20
133.695756
 30
0.0
 11
360.620968
 21
133.695756
 31
0.0
  0
LINE
  5
233
100
AcDbEntity
  8
18
370
    30
  6
Continuous
 62
   212
100
AcDbLine
 10
368.120967
 20
136.695756
 30
0.0
 11
283.120967
 21
136.695756
 31
0.0
  0
LINE
  5
234
100
AcDbEntity
  8
18
370
    30
  6
Continuous
 62
   212
100
AcDbLine
 10
283.120967
 20
136.695756
 30
0.0
 11
283.120967
 21
133.695756
 31
0.0
  0
ENDBLK
  5
235
100
AcDbEntity
  8
0
100
AcDbBlockEnd
  0
BLOCK
  5
23A
100
AcDbEntity
  8
0
370
    30
  6
Continuous
 62
     7
100
AcDbBlockBegin
  2
*G36
 70
     0
 10
0.0
 20
0.0
 30
0.0
  3
*G36
  1

  0
LINE
  5
23B
100
AcDbEntity
  8
20
370
    30
  6
Continuous
 62
   250
100
AcDbLine
 10
310.252065
 20
123.636415
 30
0.0
 11
310.252065
 21
116.189138
 31
0.0
  0
LINE
  5
23C
100
AcDbEntity
  8
20
370
    30
  6
Continuous
 62
   250
100
AcDbLine
 10
310.252065
 20
116.189138
 30
0.0
 11
340.989871
 21
116.189138
 31
0.0
  0
LINE
  5
23D
100
AcDbEntity
  8
20
370
    30
  6
Continuous
 62
   250
100
AcDbLine
 10
340.989871
 20
116.189138
 30
0.0
 11
340.989871
 21
123.636415
 31
0.0
  0
LINE
  5
23E
100
AcDbEntity
  8
20
370
    30
  6
Continuous
 62
   250
100
AcDbLine
 10
340.989871
 20
123.636415
 30
0.0
 11
310.252065
 21
123.636415
 31
0.0
  0
ENDBLK
  5
23F
100
AcDbEntity
  8
0
100
AcDbBlockEnd
  0
ENDSEC
  0
SECTION
  2
ENTITIES
  0
INSERT
  5
47
100
AcDbEntity
  8
0
370
     9
  6
Continuous
 62
     7
100
AcDbBlockReference
  2
*G0
 10
0.0
 20
0.0
 30
0.0
  0
LINE
  5
48
100
AcDbEntity
  8
1
370
     9
  6
Continuous
 62
     7
100
AcDbLine
 10
12.122858
 20
272.166966
 30
0.0
 11
400.342204
 21
272.166966
 31
0.0
  0
LINE
  5
49
100
AcDbEntity
  8
1
370
     9
  6
Continuous
 62
     7
100
AcDbLine
 10
11.924899
 20
272.35504
 30
0.0
 11
400.540185
 21
272.35504
 31
0.0
  0
LINE
  5
4A
100
AcDbEntity
  8
1
370
     9
  6
Continuous
 62
     7
100
AcDbLine
 10
11.746734
 20
272.54309
 30
0.0
 11
400.718328
 21
272.54309
 31
0.0
  0
LINE
  5
4B
100
AcDbEntity
  8
1
370
     9
  6
Continuous
 62
     7
100
AcDbLine
 10
400.342204
 20
272.166966
 30
0.0
 11
400.342204
 21
5.107789
 31
0.0
  0
LINE
  5
4C
100
AcDbEntity
  8
1
370
     9
  6
Continuous
 62
     7
100
AcDbLine
 10
11.924899
 20
272.35504
 30
0.0
 11
11.924899
 21
4.929625
 31
0.0
  0
LINE
  5
4D
100
AcDbEntity
  8
1
370
     9
  6
Continuous
 62
     7
100
AcDbLine
 10
12.122858
 20
5.107789
 30
0.0
 11
12.122858
 21
272.166966
 31
0.0
  0
LINE
  5
4E
100
AcDbEntity
  8
1
370
     9
  6
Continuous
 62
     7
100
AcDbLine
 10
400.540185
 20
272.35504
 30
0.0
 11
400.540185
 21
4.929625
 31
0.0
  0
LINE
  5
4F
100
AcDbEntity
  8
1
370
     9
  6
Continuous
 62
     7
100
AcDbLine
 10
400.718328
 20
272.54309
 30
0.0
 11
400.718328
 21
4.731666
 31
0.0
  0
LINE
  5
50
100
AcDbEntity
  8
1
370
     9
  6
Continuous
 62
     7
100
AcDbLine
 10
11.746734
 20
272.54309
 30
0.0
 11
11.746734
 21
4.731666
 31
0.0
  0
TEXT
  5
51
100
AcDbEntity
  8
1
370
     9
  6
Continuous
 62
     7
100
AcDbText
 10
305.231504
 20
17.979201
 30
0.0
 40
2.94
  1
齋藤
 11
305.231504
 21
17.979201
 31
0.0
100
AcDbText
 73
     1
  0
TEXT
  5
52
100
AcDbEntity
  8
1
370
     9
  6
Continuous
 62
     7
100
AcDbText
 10
212.094184
 20
11.563265
 30
0.0
 40
7.4235
  1
エクノス株式会社
 11
212.094184
 21
11.563265
 31
0.0
100
AcDbText
 73
     1
  0
TEXT
  5
53
100
AcDbEntity
  8
1
370
     9
  6
Continuous
 62
     7
100
AcDbText
 10
211.130681
 20
7.131059
 30
0.0
 40
2.94
  1
〒228-0803　神奈川県相模原市相模大野3-11-17
 41
0.741379
 11
211.130681
 21
7.131059
 31
0.0
100
AcDbText
 73
     1
  0
TEXT
  5
54
100
AcDbEntity
  8
1
370
     9
  6
Continuous
 62
     7
100
AcDbText
 10
340.084752
 20
18.643651
 30
0.0
 40
2.4745
  1
工事名称
 11
340.084752
 21
18.643651
 31
0.0
100
AcDbText
 73
     1
  0
LINE
  5
55
100
AcDbEntity
  8
1
370
     9
  6
Continuous
 62
     7
100
AcDbLine
 10
295.215557
 20
17.061044
 30
0.0
 11
313.779566
 21
17.061044
 31
0.0
  0
LINE
  5
56
100
AcDbEntity
  8
1
370
     9
  6
Continuous
 62
     7
100
AcDbLine
 10
313.779566
 20
22.072042
 30
0.0
 11
313.779566
 21
12.182657
 31
0.0
  0
LINE
  5
57
100
AcDbEntity
  8
1
370
     9
  6
Continuous
 62
     7
100
AcDbLine
 10
322.138322
 20
22.062604
 30
0.0
 11
322.138322
 21
12.173219
 31
0.0
  0
LINE
  5
58
100
AcDbEntity
  8
1
370
     9
  6
Continuous
 62
     7
100
AcDbLine
 10
330.497078
 20
22.053166
 30
0.0
 11
330.497078
 21
12.163781
 31
0.0
  0
TEXT
  5
59
100
AcDbEntity
  8
1
370
     9
  6
Continuous
 62
     7
100
AcDbText
 10
295.968997
 20
13.638323
 30
0.0
 40
2.4745
  1
縮尺
 11
295.968997
 21
13.638323
 31
0.0
100
AcDbText
 73
     1
  0
TEXT
  5
5A
100
AcDbEntity
  8
1
370
     9
  6
Continuous
 62
     7
100
AcDbText
 10
295.968997
 20
18.373511
 30
0.0
 40
2.4745
  1
設計
 11
295.968997
 21
18.373511
 31
0.0
100
AcDbText
 73
     1
  0
TEXT
  5
5B
100
AcDbEntity
  8
1
370
     9
  6
Continuous
 62
     7
100
AcDbText
 10
281.156357
 20
18.737756
 30
0.0
 40
2.4745
  1
日付
 11
281.156357
 21
18.737756
 31
0.0
100
AcDbText
 73
     1
  0
LINE
  5
5C
100
AcDbEntity
  8
1
370
     9
  6
Continuous
 62
     7
100
AcDbLine
 10
324.909557
 20
12.170913
 30
0.0
 11
324.909557
 21
5.107789
 31
0.0
  0
LINE
  5
5D
100
AcDbEntity
  8
1
370
     9
  6
Continuous
 62
     7
100
AcDbLine
 10
338.855834
 20
12.155166
 30
0.0
 11
295.215557
 21
12.204441
 31
0.0
  0
TEXT
  5
5E
100
AcDbEntity
  8
1
370
     9
  6
Continuous
 62
     7
100
AcDbText
 10
295.778952
 20
9.525387
 30
0.0
 40
2.4745
  1
図　番
 11
295.778952
 21
9.525387
 31
0.0
100
AcDbText
 73
     1
  0
TEXT
  5
5F
100
AcDbEntity
  8
1
370
     9
  6
Continuous
 62
     7
100
AcDbText
 10
325.806085
 20
9.464679
 30
0.0
 40
2.4745
  1
分割番号
 11
325.806085
 21
9.464679
 31
0.0
100
AcDbText
 73
     1
  0
TEXT
  5
60
100
AcDbEntity
  8
1
370
     9
  6
Continuous
 62
     7
100
AcDbText
 10
339.791919
 20
9.221849
 30
0.0
 40
2.4745
  1
図　名
 11
339.791919
 21
9.221849
 31
0.0
100
AcDbText
 73
     1
  0
LINE
  5
61
100
AcDbEntity
  8
1
370
     9
  6
Continuous
 62
     7
100
AcDbLine
 10
400.342204
 20
12.037495
 30
0.0
 11
338.855834
 21
12.155166
 31
0.0
  0
LINE
  5
62
100
AcDbEntity
  8
1
370
     9
  6
Continuous
 62
     7
100
AcDbLine
 10
295.215557
 20
22.053166
 30
0.0
 11
295.215557
 21
5.107789
 31
0.0
  0
LINE
  5
63
100
AcDbEntity
  8
1
370
     9
  6
Continuous
 62
     7
100
AcDbLine
 10
280.368557
 20
22.053166
 30
0.0
 11
280.368557
 21
5.107789
 31
0.0
  0
TEXT
  5
64
100
AcDbEntity
  8
1
370
     9
  6
Continuous
 62
     7
100
AcDbText
 10
170.989819
 20
20.477161
 30
0.0
 40
1.4847
  1
訂正事項
 11
170.989819
 21
20.477161
 31
0.0
100
AcDbText
 73
     1
  0
TEXT
  5
65
100
AcDbEntity
  8
1
370
     9
  6
Continuous
 62
     7
100
AcDbText
 10
15.096319
 20
20.477161
 30
0.0
 40
1.4847
  1
特記事項
 11
15.096319
 21
20.477161
 31
0.0
100
AcDbText
 73
     1
  0
LINE
  5
66
100
AcDbEntity
  8
1
370
     9
  6
Continuous
 62
     7
100
AcDbLine
 10
14.597358
 20
6.802327
 30
0.0
 11
203.659057
 21
6.802327
 31
0.0
  0
LINE
  5
67
100
AcDbEntity
  8
1
370
     9
  6
Continuous
 62
     7
100
AcDbLine
 10
14.597358
 20
20.358628
 30
0.0
 11
203.659057
 21
20.358628
 31
0.0
  0
LINE
  5
68
100
AcDbEntity
  8
1
370
     9
  6
Continuous
 62
     7
100
AcDbLine
 10
14.597358
 20
16.969553
 30
0.0
 11
203.659057
 21
16.969553
 31
0.0
  0
LINE
  5
69
100
AcDbEntity
  8
1
370
     9
  6
Continuous
 62
     7
100
AcDbLine
 10
14.597358
 20
13.580477
 30
0.0
 11
203.659057
 21
13.580477
 31
0.0
  0
LINE
  5
6A
100
AcDbEntity
  8
1
370
     9
  6
Continuous
 62
     7
100
AcDbLine
 10
14.597358
 20
10.191402
 30
0.0
 11
203.659057
 21
10.191402
 31
0.0
  0
LINE
  5
6B
100
AcDbEntity
  8
1
370
     9
  6
Continuous
 62
     7
100
AcDbLine
 10
14.597358
 20
8.496865
 30
0.0
 11
203.659057
 21
8.496865
 31
0.0
  0
LINE
  5
6C
100
AcDbEntity
  8
1
370
     9
  6
Continuous
 62
     7
100
AcDbLine
 10
14.597358
 20
11.88594
 30
0.0
 11
203.659057
 21
11.88594
 31
0.0
  0
LINE
  5
6D
100
AcDbEntity
  8
1
370
     9
  6
Continuous
 62
     7
100
AcDbLine
 10
14.597358
 20
15.275015
 30
0.0
 11
203.659057
 21
15.275015
 31
0.0
  0
LINE
  5
6E
100
AcDbEntity
  8
1
370
     9
  6
Continuous
 62
     7
100
AcDbLine
 10
14.597358
 20
18.66409
 30
0.0
 11
203.659057
 21
18.66409
 31
0.0
  0
LINE
  5
6F
100
AcDbEntity
  8
1
370
     9
  6
Continuous
 62
     7
100
AcDbLine
 10
206.133557
 20
22.053166
 30
0.0
 11
206.133557
 21
4.731666
 31
0.0
  0
LINE
  5
70
100
AcDbEntity
  8
1
370
     9
  6
Continuous
 62
     7
100
AcDbLine
 10
338.855834
 20
22.053166
 30
0.0
 11
12.122858
 21
22.053166
 31
0.0
  0
LINE
  5
71
100
AcDbEntity
  8
1
370
     9
  6
Continuous
 62
     7
100
AcDbLine
 10
339.222076
 20
21.686939
 30
0.0
 11
400.342204
 21
21.686939
 31
0.0
  0
LINE
  5
72
100
AcDbEntity
  8
1
370
     9
  6
Continuous
 62
     7
100
AcDbLine
 10
339.222076
 20
21.686939
 30
0.0
 11
339.222076
 21
5.107789
 31
0.0
  0
LINE
  5
73
100
AcDbEntity
  8
1
370
     9
  6
Continuous
 62
     7
100
AcDbLine
 10
339.043908
 20
21.875001
 30
0.0
 11
339.043908
 21
5.107789
 31
0.0
  0
LINE
  5
74
100
AcDbEntity
  8
1
370
     9
  6
Continuous
 62
     7
100
AcDbLine
 10
338.855834
 20
22.053166
 30
0.0
 11
338.855834
 21
5.107789
 31
0.0
  0
LINE
  5
75
100
AcDbEntity
  8
1
370
     9
  6
Continuous
 62
     7
100
AcDbLine
 10
338.855834
 20
22.053166
 30
0.0
 11
400.342204
 21
22.053166
 31
0.0
  0
LINE
  5
76
100
AcDbEntity
  8
1
370
     9
  6
Continuous
 62
     7
100
AcDbLine
 10
339.043908
 20
21.875001
 30
0.0
 11
400.342204
 21
21.875001
 31
0.0
  0
LINE
  5
77
100
AcDbEntity
  8
1
370
     9
  6
Continuous
 62
     7
100
AcDbLine
 10
12.122858
 20
5.107789
 30
0.0
 11
400.342204
 21
5.107789
 31
0.0
  0
LINE
  5
78
100
AcDbEntity
  8
1
370
     9
  6
Continuous
 62
     7
100
AcDbLine
 10
11.924899
 20
4.929625
 30
0.0
 11
400.540185
 21
4.929625
 31
0.0
  0
LINE
  5
79
100
AcDbEntity
  8
1
370
     9
  6
Continuous
 62
     7
100
AcDbLine
 10
11.746734
 20
4.731666
 30
0.0
 11
400.718328
 21
4.731666
 31
0.0
  0
TEXT
  5
7A
100
AcDbEntity
  8
1
370
     9
  6
Continuous
 62
     7
100
AcDbText
 10
305.231504
 20
13.154355
 30
0.0
 40
2.94
  1
1/1
 41
0.5
 11
305.231504
 21
13.154355
 31
0.0
100
AcDbText
 73
     1
  0
TEXT
  5
7B
100
AcDbEntity
  8
1
370
     9
  6
Continuous
 62
     7
100
AcDbText
 10
282.097306
 20
11.273007
 30
0.0
 40
2.94
  1
05/01/4
 41
0.5
 11
282.097306
 21
11.273007
 31
0.0
100
AcDbText
 73
     1
  0
LINE
  5
7C
100
AcDbEntity
  8
1
370
     9
  6
Continuous
 62
     7
100
AcDbLine
 10
400.342204
 20
55.756405
 30
0.0
 11
307.408484
 21
55.756405
 31
0.0
  0
LINE
  5
7D
100
AcDbEntity
  8
1
370
     9
  6
Continuous
 62
     7
100
AcDbLine
 10
307.408484
 20
50.156405
 30
0.0
 11
400.342204
 21
50.156405
 31
0.0
  0
LINE
  5
7E
100
AcDbEntity
  8
1
370
     9
  6
Continuous
 62
     7
100
AcDbLine
 10
307.408484
 20
38.956405
 30
0.0
 11
400.342204
 21
38.956405
 31
0.0
  0
LINE
  5
7F
100
AcDbEntity
  8
1
370
     9
  6
Continuous
 62
     7
100
AcDbLine
 10
307.408484
 20
44.556405
 30
0.0
 11
400.342204
 21
44.556405
 31
0.0
  0
TEXT
  5
80
100
AcDbEntity
  8
1
370
     9
  6
Continuous
 62
     7
100
AcDbText
 10
310.907763
 20
56.885559
 30
0.0
 40
3.5
  1
仕　様
 11
310.907763
 21
56.885559
 31
0.0
100
AcDbText
 73
     1
  0
LINE
  5
81
100
AcDbEntity
  8
1
370
     9
  6
Continuous
 62
     7
100
AcDbLine
 10
307.399852
 20
56.826844
 30
0.0
 11
324.895277
 21
56.826844
 31
0.0
  0
TEXT
  5
82
100
AcDbEntity
  8
1
370
     9
  6
Continuous
 62
     7
100
AcDbText
 10
311.267962
 20
40.031777
 30
0.0
 40
3.5
  1
材　質
 41
1.08
 11
311.267962
 21
40.031777
 31
0.0
100
AcDbText
 73
     1
  0
TEXT
  5
83
100
AcDbEntity
  8
1
370
     9
  6
Continuous
 62
     7
100
AcDbText
 10
310.94732
 20
51.214191
 30
0.0
 40
3.5
  1
電　源
 41
1.08
 11
310.94732
 21
51.214191
 31
0.0
100
AcDbText
 73
     1
  0
TEXT
  5
84
100
AcDbEntity
  8
1
370
     9
  6
Continuous
 62
     7
100
AcDbText
 10
311.388203
 20
34.380449
 30
0.0
 40
3.5
  1
質　量
 41
1.08
 11
311.388203
 21
34.380449
 31
0.0
100
AcDbText
 73
     1
  0
LINE
  5
85
100
AcDbEntity
  8
1
370
     9
  6
Continuous
 62
     7
100
AcDbLine
 10
307.408484
 20
33.356405
 30
0.0
 11
400.342204
 21
33.356405
 31
0.0
  0
TEXT
  5
86
100
AcDbEntity
  8
1
370
     9
  6
Continuous
 62
     7
100
AcDbText
 10
309.183785
 20
28.660208
 30
0.0
 40
3.5
  1
温度範囲
 41
1.08
 11
309.183785
 21
28.660208
 31
0.0
100
AcDbText
 73
     1
  0
TEXT
  5
87
100
AcDbEntity
  8
1
370
     9
  6
Continuous
 62
     7
100
AcDbText
 10
327.219937
 20
28.820529
 30
0.0
 40
3.5
  1
-20～+60℃
 41
0.675
 11
327.219937
 21
28.820529
 31
0.0
100
AcDbText
 73
     1
  0
LINE
  5
88
100
AcDbEntity
  8
1
370
     9
  6
Continuous
 62
     7
100
AcDbLine
 10
307.408484
 20
27.678975
 30
0.0
 11
400.342204
 21
27.678975
 31
0.0
  0
LINE
  5
89
100
AcDbEntity
  8
1
370
     9
  6
Continuous
 62
     7
100
AcDbLine
 10
324.846429
 20
22.053166
 30
0.0
 11
324.908484
 21
55.756405
 31
0.0
  0
LINE
  5
8A
100
AcDbEntity
  8
1
370
     9
  6
Continuous
 62
     7
100
AcDbLine
 10
307.408484
 20
55.756405
 30
0.0
 11
307.531723
 21
22.053166
 31
0.0
  0
TEXT
  5
8B
100
AcDbEntity
  8
1
370
     9
  6
Continuous
 62
     7
100
AcDbText
 10
311.388203
 20
23.10302
 30
0.0
 40
3.5
  1
配　線
 41
1.08
 11
311.388203
 21
23.10302
 31
0.0
100
AcDbText
 73
     1
  0
TEXT
  5
8C
100
AcDbEntity
  8
1
370
     9
  6
Continuous
 62
     7
100
AcDbText
 10
327.099696
 20
39.991696
 30
0.0
 40
3.5
  1
ABS
 41
0.54
 11
327.099696
 21
39.991696
 31
0.0
100
AcDbText
 73
     1
  0
INSERT
  5
91
100
AcDbEntity
  8
0
370
     9
  6
Continuous
 62
     7
100
AcDbBlockReference
  2
*G1
 10
0.0
 20
0.0
 30
0.0
  0
INSERT
  5
96
100
AcDbEntity
  8
0
370
     9
  6
Continuous
 62
     7
100
AcDbBlockReference
  2
*G2
 10
0.0
 20
0.0
 30
0.0
  0
LINE
  5
97
100
AcDbEntity
  8
20
370
     9
  6
Continuous
 62
   250
100
AcDbLine
 10
35.469163
 20
115.695756
 30
0.0
 11
104.845567
 21
115.695756
 31
0.0
  0
ARC
  5
98
100
AcDbEntity
  8
20
370
    30
  6
Continuous
 62
   250
100
AcDbCircle
 10
104.469163
 20
116.109969
 30
0.0
 40
1.0
100
AcDbArc
 50
-45.0
 51
0.0
  0
LINE
  5
99
100
AcDbEntity
  8
20
370
    30
  6
Continuous
 62
   250
100
AcDbLine
 10
35.469163
 20
124.195756
 30
0.0
 11
35.469163
 21
116.109969
 31
0.0
  0
LINE
  5
9A
100
AcDbEntity
  8
20
370
    30
  6
Continuous
 62
   250
100
AcDbLine
 10
105.469163
 20
124.195756
 30
0.0
 11
105.469163
 21
116.109969
 31
0.0
  0
LINE
  5
9B
100
AcDbEntity
  8
20
370
    30
  6
Continuous
 62
   250
100
AcDbLine
 10
290.620968
 20
115.695756
 30
0.0
 11
295.620968
 21
110.695756
 31
0.0
  0
LINE
  5
9C
100
AcDbEntity
  8
20
370
     9
  6
Continuous
 62
   250
100
AcDbLine
 10
360.620968
 20
115.695756
 30
0.0
 11
291.244564
 21
115.695756
 31
0.0
  0
LINE
  5
9D
100
AcDbEntity
  8
20
370
    30
  6
Continuous
 62
   250
100
AcDbLine
 10
360.620968
 20
124.195756
 30
0.0
 11
360.620968
 21
115.695756
 31
0.0
  0
LINE
  5
9E
100
AcDbEntity
  8
20
370
    30
  6
Continuous
 62
   250
100
AcDbLine
 10
290.620968
 20
124.195756
 30
0.0
 11
290.620968
 21
115.695756
 31
0.0
  0
LINE
  5
9F
100
AcDbEntity
  8
20
370
     9
  6
Continuous
 62
   250
100
AcDbLine
 10
254.773552
 20
124.195756
 30
0.0
 11
254.773552
 21
115.695756
 31
0.0
  0
INSERT
  5
A4
100
AcDbEntity
  8
0
370
     9
  6
Continuous
 62
     7
100
AcDbBlockReference
  2
*G3
 10
0.0
 20
0.0
 30
0.0
  0
LINE
  5
A5
100
AcDbEntity
  8
20
370
     9
  6
Continuous
 62
   250
100
AcDbLine
 10
153.098583
 20
115.695756
 30
0.0
 11
261.098582
 21
115.695756
 31
0.0
  0
LINE
  5
A6
100
AcDbEntity
  8
20
370
     9
  6
Continuous
 62
   250
100
AcDbLine
 10
254.773552
 20
115.695756
 30
0.0
 11
252.598583
 21
110.695756
 31
0.0
  0
LINE
  5
A7
100
AcDbEntity
  8
20
370
     9
  6
Continuous
 62
   250
100
AcDbLine
 10
161.598582
 20
110.695756
 30
0.0
 11
252.598583
 21
110.695756
 31
0.0
  0
LINE
  5
A8
100
AcDbEntity
  8
20
370
     9
  6
Continuous
 62
   250
100
AcDbLine
 10
226.098582
 20
68.695756
 30
0.0
 11
223.59784
 21
110.695756
 31
0.0
  0
LINE
  5
A9
100
AcDbEntity
  8
20
370
     9
  6
Continuous
 62
   250
100
AcDbLine
 10
226.098582
 20
68.695756
 30
0.0
 11
226.098583
 21
107.811699
 31
0.0
  0
LINE
  5
AA
100
AcDbEntity
  8
20
370
     9
  6
Continuous
 62
   250
100
AcDbLine
 10
188.098582
 20
68.695756
 30
0.0
 11
188.098582
 21
107.811699
 31
0.0
  0
LINE
  5
AB
100
AcDbEntity
  8
20
370
     9
  6
Continuous
 62
   250
100
AcDbLine
 10
188.098582
 20
68.695756
 30
0.0
 11
190.599325
 21
110.695756
 31
0.0
  0
LINE
  5
AC
100
AcDbEntity
  8
20
370
     9
  6
Continuous
 62
   250
100
AcDbLine
 10
241.319855
 20
107.158142
 30
0.0
 11
241.319855
 21
71.381408
 31
0.0
  0
LINE
  5
AD
100
AcDbEntity
  8
20
370
    30
  6
Continuous
 62
   250
100
AcDbLine
 10
105.17627
 20
115.402862
 30
0.0
 11
100.469163
 21
110.695756
 31
0.0
  0
INSERT
  5
B3
100
AcDbEntity
  8
0
370
     9
  6
Continuous
 62
     7
100
AcDbBlockReference
  2
*G4
 10
0.0
 20
0.0
 30
0.0
  0
LINE
  5
B4
100
AcDbEntity
  8
20
370
     9
  6
Continuous
 62
   250
100
AcDbLine
 10
96.971031
 20
110.695756
 30
0.0
 11
43.967295
 21
110.695756
 31
0.0
  0
INSERT
  5
BA
100
AcDbEntity
  8
0
370
     9
  6
Continuous
 62
     7
100
AcDbBlockReference
  2
*G5
 10
0.0
 20
0.0
 30
0.0
  0
INSERT
  5
C0
100
AcDbEntity
  8
0
370
     9
  6
Continuous
 62
     7
100
AcDbBlockReference
  2
*G6
 10
0.0
 20
0.0
 30
0.0
  0
LINE
  5
C1
100
AcDbEntity
  8
20
370
     9
  6
DOT
 62
   250
100
AcDbLine
 10
305.620968
 20
70.695756
 30
0.0
 11
345.620968
 21
70.695756
 31
0.0
  0
INSERT
  5
C7
100
AcDbEntity
  8
0
370
     9
  6
Continuous
 62
     7
100
AcDbBlockReference
  2
*G7
 10
0.0
 20
0.0
 30
0.0
  0
INSERT
  5
D0
100
AcDbEntity
  8
0
370
     9
  6
Continuous
 62
     7
100
AcDbBlockReference
  2
*G8
 10
0.0
 20
0.0
 30
0.0
  0
INSERT
  5
D6
100
AcDbEntity
  8
0
370
     9
  6
Continuous
 62
     7
100
AcDbBlockReference
  2
*G9
 10
0.0
 20
0.0
 30
0.0
  0
LINE
  5
D7
100
AcDbEntity
  8
20
370
     9
  6
DOT
 62
   250
100
AcDbLine
 10
50.469163
 20
70.695756
 30
0.0
 11
90.469163
 21
70.695756
 31
0.0
  0
INSERT
  5
DD
100
AcDbEntity
  8
0
370
     9
  6
Continuous
 62
     7
100
AcDbBlockReference
  2
*G10
 10
0.0
 20
0.0
 30
0.0
  0
INSERT
  5
E8
100
AcDbEntity
  8
0
370
     9
  6
Continuous
 62
     7
100
AcDbBlockReference
  2
*G11
 10
0.0
 20
0.0
 30
0.0
  0
LINE
  5
E9
100
AcDbEntity
  8
20
370
     9
  6
Continuous
 62
   250
100
AcDbLine
 10
59.469135
 20
100.695756
 30
0.0
 11
59.469135
 21
78.695756
 31
0.0
  0
LINE
  5
EA
100
AcDbEntity
  8
20
370
     9
  6
Continuous
 62
   250
100
AcDbLine
 10
81.469135
 20
78.695756
 30
0.0
 11
59.469135
 21
78.695756
 31
0.0
  0
LINE
  5
EB
100
AcDbEntity
  8
20
370
     9
  6
Continuous
 62
   250
100
AcDbLine
 10
81.469135
 20
100.695756
 30
0.0
 11
59.469135
 21
100.695756
 31
0.0
  0
LINE
  5
EC
100
AcDbEntity
  8
20
370
     9
  6
Continuous
 62
   250
100
AcDbLine
 10
81.469135
 20
97.195756
 30
0.0
 11
81.469135
 21
100.695756
 31
0.0
  0
LINE
  5
ED
100
AcDbEntity
  8
20
370
     9
  6
Continuous
 62
   250
100
AcDbLine
 10
81.469135
 20
91.195756
 30
0.0
 11
81.469135
 21
94.195756
 31
0.0
  0
LINE
  5
EE
100
AcDbEntity
  8
20
370
     9
  6
Continuous
 62
   250
100
AcDbLine
 10
81.469135
 20
85.195756
 30
0.0
 11
81.469135
 21
88.195756
 31
0.0
  0
LINE
  5
EF
100
AcDbEntity
  8
20
370
     9
  6
Continuous
 62
   250
100
AcDbLine
 10
81.469135
 20
82.195756
 30
0.0
 11
81.469135
 21
78.695756
 31
0.0
  0
ARC
  5
F0
100
AcDbEntity
  8
20
370
     9
  6
Continuous
 62
   250
100
AcDbCircle
 10
70.469135
 20
89.695756
 30
0.0
 40
7.5
100
AcDbArc
 50
90.0
 51
-90.0
  0
INSERT
  5
F6
100
AcDbEntity
  8
0
370
     9
  6
Continuous
 62
     7
100
AcDbBlockReference
  2
*G12
 10
0.0
 20
0.0
 30
0.0
  0
INSERT
  5
FC
100
AcDbEntity
  8
0
370
     9
  6
Continuous
 62
     7
100
AcDbBlockReference
  2
*G13
 10
0.0
 20
0.0
 30
0.0
  0
ARC
  5
FD
100
AcDbEntity
  8
20
370
     9
  6
Continuous
 62
   250
100
AcDbCircle
 10
70.469135
 20
89.695756
 30
0.0
 40
4.5
100
AcDbArc
 50
90.0
 51
160.528779
  0
ARC
  5
FE
100
AcDbEntity
  8
20
370
     9
  6
Continuous
 62
   250
100
AcDbCircle
 10
70.469135
 20
89.695756
 30
0.0
 40
4.5
100
AcDbArc
 50
-160.528779
 51
-90.0
  0
INSERT
  5
104
100
AcDbEntity
  8
0
370
     9
  6
Continuous
 62
     7
100
AcDbBlockReference
  2
*G14
 10
0.0
 20
0.0
 30
0.0
  0
LINE
  5
105
100
AcDbEntity
  8
20
370
     9
  6
Continuous
 62
   250
100
AcDbLine
 10
198.598582
 20
101.695756
 30
0.0
 11
215.598583
 21
101.695756
 31
0.0
  0
LINE
  5
106
100
AcDbEntity
  8
20
370
     9
  6
Continuous
 62
   250
100
AcDbLine
 10
197.098582
 20
101.695756
 30
0.0
 11
190.599325
 21
110.695756
 31
0.0
  0
LINE
  5
107
100
AcDbEntity
  8
20
370
     9
  6
Continuous
 62
   250
100
AcDbLine
 10
217.098583
 20
101.695756
 30
0.0
 11
223.59784
 21
110.695756
 31
0.0
  0
LINE
  5
108
100
AcDbEntity
  8
20
370
     9
  6
Continuous
 62
   250
100
AcDbLine
 10
217.098583
 20
68.695756
 30
0.0
 11
217.098583
 21
101.695756
 31
0.0
  0
LINE
  5
109
100
AcDbEntity
  8
20
370
     9
  6
Continuous
 62
   250
100
AcDbLine
 10
197.098582
 20
68.695756
 30
0.0
 11
197.098582
 21
101.695756
 31
0.0
  0
INSERT
  5
113
100
AcDbEntity
  8
0
370
     9
  6
Continuous
 62
     7
100
AcDbBlockReference
  2
*G15
 10
0.0
 20
0.0
 30
0.0
  0
INSERT
  5
11D
100
AcDbEntity
  8
0
370
     9
  6
Continuous
 62
     7
100
AcDbBlockReference
  2
*G16
 10
0.0
 20
0.0
 30
0.0
  0
INSERT
  5
138
100
AcDbEntity
  8
0
370
     9
  6
Continuous
 62
     7
100
AcDbBlockReference
  2
*G17
 10
0.0
 20
0.0
 30
0.0
  0
INSERT
  5
142
100
AcDbEntity
  8
0
370
     9
  6
Continuous
 62
     7
100
AcDbBlockReference
  2
*G18
 10
0.0
 20
0.0
 30
0.0
  0
INSERT
  5
14A
100
AcDbEntity
  8
0
370
     9
  6
Continuous
 62
     7
100
AcDbBlockReference
  2
*G19
 10
0.0
 20
0.0
 30
0.0
  0
INSERT
  5
14F
100
AcDbEntity
  8
0
370
     9
  6
Continuous
 62
     7
100
AcDbBlockReference
  2
*G20
 10
0.0
 20
0.0
 30
0.0
  0
LINE
  5
150
100
AcDbEntity
  8
20
370
    30
  6
Continuous
 62
   250
100
AcDbLine
 10
252.598583
 20
110.695756
 30
0.0
 11
255.270155
 21
110.695756
 31
0.0
  0
ARC
  5
151
100
AcDbEntity
  8
20
370
    30
  6
Continuous
 62
   250
100
AcDbCircle
 10
255.270155
 20
112.695756
 30
0.0
 40
2.0
100
AcDbArc
 50
-90.0
 51
-45.0
  0
LINE
  5
152
100
AcDbEntity
  8
20
370
    30
  6
Continuous
 62
   250
100
AcDbLine
 10
260.512796
 20
115.109969
 30
0.0
 11
256.684369
 21
111.281542
 31
0.0
  0
LINE
  5
153
100
AcDbEntity
  8
20
370
    30
  6
Continuous
 62
   250
100
AcDbLine
 10
261.098582
 20
124.195756
 30
0.0
 11
261.098582
 21
116.524183
 31
0.0
  0
ARC
  5
154
100
AcDbEntity
  8
20
370
    30
  6
Continuous
 62
   250
100
AcDbCircle
 10
259.098582
 20
116.524183
 30
0.0
 40
2.0
100
AcDbArc
 50
-45.0
 51
0.0
  0
LINE
  5
155
100
AcDbEntity
  8
20
370
    30
  6
Continuous
 62
   250
100
AcDbLine
 10
153.098583
 20
124.195756
 30
0.0
 11
153.098583
 21
116.524183
 31
0.0
  0
ARC
  5
156
100
AcDbEntity
  8
20
370
    30
  6
Continuous
 62
   250
100
AcDbCircle
 10
155.098583
 20
116.524183
 30
0.0
 40
2.0
100
AcDbArc
 50
180.0
 51
-135.0
  0
INSERT
  5
15D
100
AcDbEntity
  8
0
370
     9
  6
Continuous
 62
     7
100
AcDbBlockReference
  2
*G21
 10
0.0
 20
0.0
 30
0.0
  0
INSERT
  5
16F
100
AcDbEntity
  8
0
370
     9
  6
Continuous
 62
     7
100
AcDbBlockReference
  2
*G22
 10
0.0
 20
0.0
 30
0.0
  0
INSERT
  5
174
100
AcDbEntity
  8
0
370
     9
  6
Continuous
 62
     7
100
AcDbBlockReference
  2
*G23
 10
0.0
 20
0.0
 30
0.0
  0
INSERT
  5
179
100
AcDbEntity
  8
0
370
     9
  6
Continuous
 62
     7
100
AcDbBlockReference
  2
*G24
 10
0.0
 20
0.0
 30
0.0
  0
INSERT
  5
17F
100
AcDbEntity
  8
0
370
     9
  6
Continuous
 62
     7
100
AcDbBlockReference
  2
*G25
 10
0.0
 20
0.0
 30
0.0
  0
INSERT
  5
187
100
AcDbEntity
  8
0
370
     9
  6
Continuous
 62
     7
100
AcDbBlockReference
  2
*G26
 10
0.0
 20
0.0
 30
0.0
  0
INSERT
  5
18D
100
AcDbEntity
  8
0
370
     9
  6
Continuous
 62
     7
100
AcDbBlockReference
  2
*G27
 10
0.0
 20
0.0
 30
0.0
  0
INSERT
  5
192
100
AcDbEntity
  8
0
370
     9
  6
Continuous
 62
     7
100
AcDbBlockReference
  2
*G28
 10
0.0
 20
0.0
 30
0.0
  0
DIMENSION
  5
19E
100
AcDbEntity
  8
1
370
     9
  6
Continuous
 62
     7
100
AcDbDimension
  2
*D29
 10
138.45733
 20
68.695756
 30
0.0
 11
138.45733
 21
102.695756
 31
0.0
 71
     5
 72
     1
 41
1.0
 42
0.0
  1
68
100
AcDbAlignedDimension
 13
165.098583
 23
68.695756
 33
0.0
 14
164.098582
 24
136.695756
 34
0.0
 50
90.0
100
AcDbRotatedDimension
  0
INSERT
  5
1AC
100
AcDbEntity
  8
12
370
     9
  6
Continuous
 62
   136
100
AcDbBlockReference
  2
*G30
 10
0.0
 20
0.0
 30
0.0
  0
INSERT
  5
1F7
100
AcDbEntity
  8
0
370
     9
  6
Continuous
 62
     7
100
AcDbBlockReference
  2
*G31
 10
0.0
 20
0.0
 30
0.0
  0
INSERT
  5
208
100
AcDbEntity
  8
0
370
     9
  6
Continuous
 62
     7
100
AcDbBlockReference
  2
*G32
 10
0.0
 20
0.0
 30
0.0
  0
ARC
  5
209
100
AcDbEntity
  8
18
370
    30
  6
Continuous
 62
   212
100
AcDbCircle
 10
207.098583
 20
210.536724
 30
0.0
 40
16.5
100
AcDbArc
 50
4.344752
 51
115.655248
  0
ARC
  5
20A
100
AcDbEntity
  8
18
370
    30
  6
Continuous
 62
   212
100
AcDbCircle
 10
207.098583
 20
210.536724
 30
0.0
 40
16.5
100
AcDbArc
 50
-115.655248
 51
-4.344752
  0
ARC
  5
20B
100
AcDbEntity
  8
18
370
    30
  6
Continuous
 62
   212
100
AcDbCircle
 10
207.098583
 20
210.536724
 30
0.0
 40
16.5
100
AcDbArc
 50
124.344752
 51
-124.344752
  0
CIRCLE
  5
20C
100
AcDbEntity
  8
18
370
    30
  6
Continuous
 62
   212
100
AcDbCircle
 10
207.098583
 20
210.536724
 30
0.0
 40
19.0
  0
DIMENSION
  5
218
100
AcDbEntity
  8
1
370
     9
  6
Continuous
 62
     7
100
AcDbDimension
  2
*D33
 10
261.098583
 20
153.9055
 30
0.0
 11
207.098583
 21
153.9055
 31
0.0
 71
     5
 72
     1
 41
1.0
 42
0.0
  1
108
100
AcDbAlignedDimension
 13
261.098583
 23
210.036724
 33
0.0
 14
153.098583
 24
210.036724
 34
0.0
100
AcDbRotatedDimension
  0
DIMENSION
  5
224
100
AcDbEntity
  8
1
370
     9
  6
Continuous
 62
     7
100
AcDbDimension
  2
*D34
 10
134.152496
 20
168.036724
 30
0.0
 11
134.152496
 21
210.536724
 31
0.0
 71
     5
 72
     1
 41
1.0
 42
0.0
  1
85
100
AcDbAlignedDimension
 13
206.598583
 23
168.036724
 33
0.0
 14
206.598583
 24
253.036724
 34
0.0
 50
90.0
100
AcDbRotatedDimension
  0
INSERT
  5
236
100
AcDbEntity
  8
0
370
     9
  6
Continuous
 62
     7
100
AcDbBlockReference
  2
*G35
 10
0.0
 20
0.0
 30
0.0
  0
TEXT
  5
237
100
AcDbEntity
  8
1
370
     9
  6
Continuous
 62
     7
100
AcDbText
 10
327.219937
 20
23.1431
 30
0.0
 40
3.5
  1
丸形露出ボックス取付型 
 41
1.08
 11
327.219937
 21
23.1431
 31
0.0
100
AcDbText
 73
     1
  0
TEXT
  5
238
100
AcDbEntity
  8
1
370
     9
  6
Continuous
 62
     7
100
AcDbText
 10
327.099696
 20
51.214191
 30
0.0
 40
3.5
  1
DC24V　(制御盤より供給）
 41
0.864
 11
327.099696
 21
51.214191
 31
0.0
100
AcDbText
 73
     1
  0
INSERT
  5
240
100
AcDbEntity
  8
0
370
    30
  6
Continuous
 62
     7
100
AcDbBlockReference
  2
*G36
 10
0.0
 20
0.0
 30
0.0
  0
LINE
  5
241
100
AcDbEntity
  8
20
370
     9
  6
Continuous
 62
   250
100
AcDbLine
 10
330.731378
 20
121.233857
 30
0.0
 11
331.316114
 21
123.664512
 31
0.0
  0
LINE
  5
242
100
AcDbEntity
  8
20
370
     9
  6
Continuous
 62
   250
100
AcDbLine
 10
330.731378
 20
121.233857
 30
0.0
 11
332.453102
 21
123.046498
 31
0.0
  0
POLYLINE
  5
243
100
AcDbEntity
  8
20
370
     9
  6
Continuous
 62
   250
100
AcDb2dPolyline
 66
     1
 10
0.0
 20
0.0
 30
0.0
  0
VERTEX
  5
244
100
AcDbEntity
  8
20
370
     9
  6
Continuous
 62
   250
100
AcDbVertex
100
AcDb2dVertex
 10
330.731378
 20
121.233857
 30
0.0
  0
VERTEX
  5
245
100
AcDbEntity
  8
20
370
     9
  6
Continuous
 62
   250
100
AcDbVertex
100
AcDb2dVertex
 10
347.480386
 20
152.047737
 30
0.0
  0
VERTEX
  5
246
100
AcDbEntity
  8
20
370
     9
  6
Continuous
 62
   250
100
AcDbVertex
100
AcDb2dVertex
 10
365.480386
 20
152.047737
 30
0.0
  0
SEQEND
  5
247
100
AcDbEntity
  8
20
370
     9
  6
Continuous
 62
   250
  0
TEXT
  5
248
100
AcDbEntity
  8
20
370
     9
  6
Continuous
 62
   250
100
AcDbText
 10
347.480386
 20
152.047737
 30
0.0
 40
4.0
  1
ｾﾝｻｰｱﾄﾞﾚｽ
 41
0.5
 11
347.480386
 21
152.047737
 31
0.0
100
AcDbText
 73
     1
  0
TEXT
  5
249
100
AcDbEntity
  8
1
370
     9
  6
Continuous
 62
     7
100
AcDbText
 10
327.219937
 20
34.420529
 30
0.0
 40
3.5
  1
約120g
 41
0.648
 11
327.219937
 21
34.420529
 31
0.0
100
AcDbText
 73
     1
  0
TEXT
  5
24A
100
AcDbEntity
  8
1
370
     9
  6
Continuous
 62
     7
100
AcDbText
 10
326.859214
 20
45.683104
 30
0.0
 40
3.5
  1
30mA以下
 41
0.72
 11
326.859214
 21
45.683104
 31
0.0
100
AcDbText
 73
     1
  0
TEXT
  5
24B
100
AcDbEntity
  8
1
370
     9
  6
Continuous
 62
     7
100
AcDbText
 10
309.304026
 20
45.643024
 30
0.0
 40
3.5
  1
消費電流
 41
1.08
 11
309.304026
 21
45.643024
 31
0.0
100
AcDbText
 73
     1
  0
TEXT
  5
24C
100
AcDbEntity
  8
1
370
     9
  6
Continuous
 62
     7
100
AcDbText
 10
350.858131
 20
7.575157
 30
0.0
 40
2.4745
  1
天井設置型超音波センサー外観図
 11
350.858131
 21
7.575157
 31
0.0
100
AcDbText
 73
     1
  0
ENDSEC
  0
SECTION
  2
OBJECTS
  0
DICTIONARY
  5
19
100
AcDbDictionary
280
     0
281
     1
  3
ACAD_GROUP
350
1A
  3
ACAD_MLINESTYLE
350
1B
  3
ACAD_LAYOUT
350
1E
  3
ACAD_PLOTSETTINGS
350
22
  3
ACAD_PLOTSTYLENAME
350
1F
  3
ACAD_WIPEOUT_VARS
350
23
  0
DICTIONARY
  5
1A
102
{ACAD_REACTORS
330
19
102
}
100
AcDbDictionary
280
     0
281
     1
  0
DICTIONARY
  5
1B
102
{ACAD_REACTORS
330
19
102
}
100
AcDbDictionary
280
     0
281
     1
  3
Standard
350
1C
  0
MLINESTYLE
  5
1C
102
{ACAD_REACTORS
330
1B
102
}
100
AcDbMlineStyle
  2
Standard
 70
     0
  3

 62
     0
 51
90.0
 52
90.0
 71
     2
 49
0.5
 62
   256
  6
ByLayer
 49
-0.5
 62
   256
  6
ByLayer
  0
ACDBDICTIONARYWDFLT
  5
1F
102
{ACAD_REACTORS
330
19
102
}
100
AcDbDictionary
281
     1
  3
Normal
350
1D
100
AcDbDictionaryWithDefault
340
1D
  0
ACDBPLACEHOLDER
  5
1D
102
{ACAD_REACTORS
330
1F
102
}
  0
LAYOUT
  5
20
102
{ACAD_REACTORS
330
1E
102
}
100
AcDbPlotSettings
  1

  2

  4

  6

 40
0.0
 41
0.0
 42
0.0
 43
0.0
 44
0.0
 45
0.0
 46
0.0
 47
0.0
 48
0.0
 49
0.0
140
0.0
141
0.0
142
1.0
143
1.0
 70
  1024
 72
     0
 73
     0
 74
     0
  7

 75
     0
147
1.0
148
0.0
149
0.0
100
AcDbLayout
  1
Model
 70
     0
 71
     0
 10
0.0
 20
0.0
 11
0.0
 21
0.0
 12
0.0
 22
0.0
 32
0.0
 14
0.0
 24
0.0
 34
0.0
 15
0.0
 25
0.0
 35
0.0
146
0.0
 13
0.0
 23
0.0
 33
0.0
 16
0.0
 26
0.0
 36
0.0
 17
0.0
 27
0.0
 37
0.0
 76
     0
330
A
331
0
345
0
346
0
  0
LAYOUT
  5
21
102
{ACAD_REACTORS
330
1E
102
}
100
AcDbPlotSettings
  1

  2

  4

  6

 40
0.0
 41
0.0
 42
0.0
 43
0.0
 44
0.0
 45
0.0
 46
0.0
 47
0.0
 48
0.0
 49
0.0
140
0.0
141
0.0
142
1.0
143
1.0
 70
     0
 72
     0
 73
     0
 74
     0
  7

 75
     0
147
1.0
148
0.0
149
0.0
100
AcDbLayout
  1
Layout1
 70
     0
 71
     0
 10
0.0
 20
0.0
 11
0.0
 21
0.0
 12
0.0
 22
0.0
 32
0.0
 14
0.0
 24
0.0
 34
0.0
 15
0.0
 25
0.0
 35
0.0
146
0.0
 13
0.0
 23
0.0
 33
0.0
 16
0.0
 26
0.0
 36
0.0
 17
0.0
 27
0.0
 37
0.0
 76
     0
330
B
331
0
345
0
346
0
  0
DICTIONARY
  5
1E
102
{ACAD_REACTORS
330
19
102
}
100
AcDbDictionary
280
     0
281
     1
  3
Layout1
350
21
  3
Model
350
20
  0
DICTIONARY
  5
22
102
{ACAD_REACTORS
330
19
102
}
100
AcDbDictionary
280
     0
281
     1
  0
WIPEOUTVARIABLES
  5
23
100
AcDbWipeoutVariables
 70
     1
  0
ENDSEC
  0
EOF
