  0
SECTION
  2
HEADER
  9
$ACADVER
  1
AC1004
  9
$INSBASE
 10
0.000000
 20
0.000000
  9
$EXTMIN
 10
0.000000
 20
0.000000
  9
$EXTMAX
 10
594.000000
 20
420.000000
  9
$LIMMIN
 10
0.000000
 20
0.000000
  9
$LIMMAX
 10
594.000000
 20
420.000000
  9
$VIEWCTR
 10
297.000000
 20
210.000000
  9
$VIEWSIZE
 40
420.000000
  9
$PEXTMIN
 10
0.000000
 20
0.000000
 30
0.000000
  9
$PEXTMAX
 10
594.000000
 20
420.000000
 30
0.000000
  9
$SNAPMODE
 70
     0
  9
$SNAPUNIT
 10
1.000000
 20
1.000000
  9
$SNAPBASE
 10
0.000000
 20
0.000000
  9
$SNAPANG
 50
0.000000
  9
$SNAPISOPAIR
 70
     0
  9
$SNAPSTYLE
 70
     0
  9
$GRIDMODE
 70
     0
  9
$GRIDUNIT
 10
0.000000
 20
0.000000
  9
$ORTHOMODE
 70
     0
  9
$REGENMODE
 70
     1
  9
$FILLMODE
 70
     1
  9
$QTEXTMODE
 70
     0
  9
$DRAGMODE
 70
     2
  9
$LTSCALE
 40
0.250000
  9
$OSMODE
 70
     0
  9
$ATTMODE
 70
     1
  9
$TEXTSIZE
 40
5.000000
  9
$TRACEWID
 40
0.050000
  9
$TEXTSTYLE
  7
STANDARD
  9
$CLAYER
  8
0
  9
$CELTYPE
  6
BYLAYER
  9
$CECOLOR
 62
   256
  9
$DIMSCALE
 40
1.000000
  9
$DIMASZ
 40
1.000000
  9
$DIMEXO
 40
0.000000
  9
$DIMDLI
 40
0.500000
  9
$DIMRND
 40
0.000000
  9
$DIMDLE
 40
0.000000
  9
$DIMEXE
 40
0.000000
  9
$DIMTP
 40
0.000000
  9
$DIMTM
 40
0.000000
  9
$DIMTXT
 40
4.000000
  9
$DIMCEN
 40
0.000000
  9
$DIMTSZ
 40
0.000000
  9
$DIMTOL
 70
     0
  9
$DIMLIM
 70
     0
  9
$DIMTIH
 70
     1
  9
$DIMTOH
 70
     1
  9
$DIMSE1
 70
     0
  9
$DIMSE2
 70
     0
  9
$DIMTAD
 70
     0
  9
$DIMZIN
 70
     0
  9
$DIMBLK
  1

  9
$DIMASO
 70
     0
  9
$DIMSHO
 70
     0
  9
$DIMPOST
  1

  9
$DIMAPOST
  1

  9
$DIMALT
 70
     0
  9
$DIMALTD
 70
     0
  9
$DIMALTF
 40
25.400000
  9
$DIMLFAC
 40
1.000000
  9
$DIMTOFL
 70
     0
  9
$DIMTVP
 40
0.000000
  9
$DIMTIX
 70
     0
  9
$DIMSOXD
 70
     0
  9
$DIMSAH
 70
     0
  9
$DIMBLKL
  1

  9
$DIMBLKR
  1

  9
$LUNITS
 70
     2
  9
$LUPREC
 70
     2
  9
$AXISMODE
 70
     0
  9
$AXISUNIT
 10
1.000000
 20
1.000000
  9
$SKETCHINC
 40
0.000000
  9
$FILLETRAD
 40
0.000000
  9
$AUNITS
 70
     1
  9
$AUPREC
 70
     2
  9
$MENU
  1
ACAD
  9
$ELEVATION
 40
0.000000
  9
$THICKNESS
 40
0.000000
  9
$VIEWDIR
 10
0.000000
 20
0.000000
 30
1.000000
  9
$LIMCHECK
 70
     1
  9
$BLIPMODE
 70
     1
  9
$CHAMFERA
 40
0.000000
  9
$CHAMFERB
 40
0.000000
  9
$FASTZOOM
 70
     1
  9
$SKPOLY
 70
     0
  9
$TDCREATE
 40
0.000000
  9
$TDUPDATE
 40
0.000000
  9
$TDINDWG
 40
0.000000
  9
$TDUSRTIMER
 40
0.000000
  9
$USRTIMER
 70
     1
  9
$ANGBASE
 50
0.000000
  9
$ANGDIR
 70
     0
  9
$PDMODE
 70
     0
  9
$PDSIZE
 40
0.000000
  9
$PLINEWID
 40
0.000000
  9
$COORDS
 70
     2
  9
$USERI1
 70
     0
  9
$USERI2
 70
     0
  9
$USERI3
 70
     0
  9
$USERI4
 70
     0
  9
$USERI5
 70
     0
  9
$USERR1
 40
0.000000
  9
$USERR2
 40
0.000000
  9
$USERR3
 40
0.000000
  9
$USERR4
 40
0.000000
  9
$USERR5
 40
0.000000
  0
ENDSEC
  0
SECTION
  2
TABLES
  0
TABLE
  2
LTYPE
 70
     5
  0
LTYPE
  2
CONTINUOUS
 70
    64
  3
Solid line
 72
    65
 73
     0
 40
0.0
  0
LTYPE
  2
HIDDEN
 70
    64
  3
------------------------
 72
    65
 73
     2
 40
12.6
 49
8.4
 49
-4.2
  0
LTYPE
  2
DOT
 70
    64
  3
････････････････････････
 72
    65
 73
     2
 40
8.0
 49
6.0
 49
-2.0
  0
LTYPE
  2
DASHDOT
 70
    64
  3
--･--･--･--･--･--･--･--
 72
    65
 73
     4
 40
50.5
 49
30.0
 49
-9.0
 49
2.5
 49
-9.0
  0
LTYPE
  2
DIVIDE
 70
    64
  3
--･･--･･--･･--･･--･･--
 72
    65
 73
     6
 40
58.0
 49
30.0
 49
-9.0
 49
2.5
 49
-5.0
 49
2.5
 49
-9.0
  0
LTYPE
  2
ACAD_ISO06W100
 70
    64
  3
____ ... ____ ... ____
 72
    65
 73
     8
 40
37.5
 49
24.0
 49
-3.0
 49
0.5
 49
-3.0
 49
0.5
 49
-3.0
 49
0.5
 49
-3.0
  0
LTYPE
  2
ACAD_ISO14W100
 70
    64
  3
__ . . . __ . . . __ . . . 
 72
    65
 73
     8
 40
25.5
 49
12.0
 49
-3.0
 49
0.5
 49
-3.0
 49
0.5
 49
-3.0
 49
0.5
 49
-3.0
  0
ENDTAB
  0
TABLE
  2
LAYER
 70
3
  0
LAYER
  2
1
 70
64
 62
7
  6
CONTINUOUS
  0
LAYER
  2
16
 70
64
 62
7
  6
CONTINUOUS
  0
LAYER
  2
128
 70
64
 62
7
  6
CONTINUOUS
  0
ENDTAB
  0
TABLE
  2
STYLE
 70
     2
  0
STYLE
  2
STANDARD
 70
    64
 40
0.0
 41
1.0
 50
0.0
 71
     0
 42
0.2
  3
TXT
  4

  0
STYLE
  2
KANJI
 70
    64
 40
0.0
 41
1.0
 50
0.0
 71
     0
 42
0.2
  3
TXT
  4
BIGFONT
  0
ENDTAB
  0
TABLE
  2
VIEW
 70
     0
  0
ENDTAB
  0
ENDSEC
  0
SECTION
  2
BLOCKS
  0
BLOCK
  8
1
 62
7
  6
CONTINUOUS
  2
*D1
 70
    65
 10
0.0
 20
0.0
  0
LINE
  8
1
 62
7
  6
CONTINUOUS
 10
229.813899
 20
310.749244
 11
229.813899
 21
232.513244
  0
LINE
  8
1
 62
7
  6
CONTINUOUS
 10
230.313899
 20
310.749244
 11
186.641665
 21
310.749244
  0
LINE
  8
1
 62
7
  6
CONTINUOUS
 10
230.313899
 20
232.513244
 11
199.317665
 21
232.513244
  0
LINE
  8
1
 62
7
  6
CONTINUOUS
 10
229.813899
 20
310.749244
 11
230.460946
 21
308.334430
  0
LINE
  8
1
 62
7
  6
CONTINUOUS
 10
229.813899
 20
310.749244
 11
229.166851
 21
308.334430
  0
LINE
  8
1
 62
7
  6
CONTINUOUS
 10
229.813899
 20
232.513244
 11
229.166851
 21
234.928059
  0
LINE
  8
1
 62
7
  6
CONTINUOUS
 10
229.813899
 20
232.513244
 11
230.460946
 21
234.928059
  0
TEXT
  8
1
 62
7
  6
CONTINUOUS
 10
229.813899
 20
263.631244
 40
4.000000
 41
1.000000
  1
７８．１
  7
KANJI
 50
90.000000
 51
0.000000
  0
ENDBLK
  0
BLOCK
  8
1
 62
7
  6
CONTINUOUS
  2
*D2
 70
    65
 10
0.0
 20
0.0
  0
LINE
  8
1
 62
7
  6
CONTINUOUS
 10
229.813899
 20
232.513244
 11
229.813899
 21
192.513244
  0
LINE
  8
1
 62
7
  6
CONTINUOUS
 10
230.313899
 20
232.513244
 11
201.567665
 21
232.513244
  0
LINE
  8
1
 62
7
  6
CONTINUOUS
 10
230.313899
 20
192.513244
 11
201.567665
 21
192.513244
  0
LINE
  8
1
 62
7
  6
CONTINUOUS
 10
229.813899
 20
232.513244
 11
230.460946
 21
230.098430
  0
LINE
  8
1
 62
7
  6
CONTINUOUS
 10
229.813899
 20
232.513244
 11
229.166851
 21
230.098430
  0
LINE
  8
1
 62
7
  6
CONTINUOUS
 10
229.813899
 20
192.513244
 11
229.166851
 21
194.928059
  0
LINE
  8
1
 62
7
  6
CONTINUOUS
 10
229.813899
 20
192.513244
 11
230.460946
 21
194.928059
  0
TEXT
  8
1
 62
7
  6
CONTINUOUS
 10
229.813899
 20
210.513244
 40
4.000000
 41
0.500000
  1
40
  7
KANJI
 50
90.000000
 51
0.000000
  0
ENDBLK
  0
BLOCK
  8
1
 62
7
  6
CONTINUOUS
  2
*D3
 70
    65
 10
0.0
 20
0.0
  0
LINE
  8
1
 62
7
  6
CONTINUOUS
 10
229.813899
 20
192.513244
 11
229.813899
 21
152.513244
  0
LINE
  8
1
 62
7
  6
CONTINUOUS
 10
230.313899
 20
192.513244
 11
201.567665
 21
192.513244
  0
LINE
  8
1
 62
7
  6
CONTINUOUS
 10
230.313899
 20
152.513244
 11
201.567665
 21
152.513244
  0
LINE
  8
1
 62
7
  6
CONTINUOUS
 10
229.813899
 20
192.513244
 11
230.460946
 21
190.098430
  0
LINE
  8
1
 62
7
  6
CONTINUOUS
 10
229.813899
 20
192.513244
 11
229.166851
 21
190.098430
  0
LINE
  8
1
 62
7
  6
CONTINUOUS
 10
229.813899
 20
152.513244
 11
229.166851
 21
154.928059
  0
LINE
  8
1
 62
7
  6
CONTINUOUS
 10
229.813899
 20
152.513244
 11
230.460946
 21
154.928059
  0
TEXT
  8
1
 62
7
  6
CONTINUOUS
 10
229.813899
 20
170.513244
 40
4.000000
 41
0.500000
  1
40
  7
KANJI
 50
90.000000
 51
0.000000
  0
ENDBLK
  0
BLOCK
  8
1
 62
7
  6
CONTINUOUS
  2
*D4
 70
    65
 10
0.0
 20
0.0
  0
LINE
  8
1
 62
7
  6
CONTINUOUS
 10
229.813899
 20
152.513244
 11
229.813899
 21
139.713244
  0
LINE
  8
1
 62
7
  6
CONTINUOUS
 10
230.313899
 20
152.513244
 11
201.567665
 21
152.513244
  0
LINE
  8
1
 62
7
  6
CONTINUOUS
 10
230.313899
 20
139.713244
 11
172.067665
 21
139.713244
  0
LINE
  8
1
 62
7
  6
CONTINUOUS
 10
229.813899
 20
152.513244
 11
230.460946
 21
150.098430
  0
LINE
  8
1
 62
7
  6
CONTINUOUS
 10
229.813899
 20
152.513244
 11
229.166851
 21
150.098430
  0
LINE
  8
1
 62
7
  6
CONTINUOUS
 10
229.813899
 20
139.713244
 11
229.166851
 21
142.128059
  0
LINE
  8
1
 62
7
  6
CONTINUOUS
 10
229.813899
 20
139.713244
 11
230.460946
 21
142.128059
  0
TEXT
  8
1
 62
7
  6
CONTINUOUS
 10
229.813899
 20
142.113244
 40
4.000000
 41
0.500000
  1
12.8
  7
KANJI
 50
90.000000
 51
0.000000
  0
ENDBLK
  0
BLOCK
  8
1
 62
7
  6
CONTINUOUS
  2
*D5
 70
    65
 10
0.0
 20
0.0
  0
LINE
  8
1
 62
7
  6
CONTINUOUS
 10
240.267249
 20
139.713244
 11
240.267249
 21
310.749244
  0
LINE
  8
1
 62
7
  6
CONTINUOUS
 10
240.767249
 20
139.713244
 11
172.567665
 21
139.713244
  0
LINE
  8
1
 62
7
  6
CONTINUOUS
 10
240.767249
 20
310.749244
 11
186.641665
 21
310.749244
  0
LINE
  8
1
 62
7
  6
CONTINUOUS
 10
240.267249
 20
139.713244
 11
239.620201
 21
142.128059
  0
LINE
  8
1
 62
7
  6
CONTINUOUS
 10
240.267249
 20
139.713244
 11
240.914296
 21
142.128059
  0
LINE
  8
1
 62
7
  6
CONTINUOUS
 10
240.267249
 20
310.749244
 11
240.914296
 21
308.334430
  0
LINE
  8
1
 62
7
  6
CONTINUOUS
 10
240.267249
 20
310.749244
 11
239.620201
 21
308.334430
  0
TEXT
  8
1
 62
7
  6
CONTINUOUS
 10
240.267249
 20
220.231244
 40
4.000000
 41
0.500000
  1
171.9
  7
KANJI
 50
90.000000
 51
0.000000
  0
ENDBLK
  0
BLOCK
  8
1
 62
7
  6
CONTINUOUS
  2
*D6
 70
    65
 10
0.0
 20
0.0
  0
LINE
  8
1
 62
7
  6
CONTINUOUS
 10
201.557665
 20
126.921198
 11
141.551394
 21
126.921198
  0
LINE
  8
1
 62
7
  6
CONTINUOUS
 10
201.557665
 20
126.421198
 11
201.557665
 21
151.513244
  0
LINE
  8
1
 62
7
  6
CONTINUOUS
 10
141.551394
 20
126.421198
 11
141.551394
 21
148.398488
  0
LINE
  8
1
 62
7
  6
CONTINUOUS
 10
201.557665
 20
126.921198
 11
199.142850
 21
126.274151
  0
LINE
  8
1
 62
7
  6
CONTINUOUS
 10
201.557665
 20
126.921198
 11
199.142850
 21
127.568246
  0
LINE
  8
1
 62
7
  6
CONTINUOUS
 10
141.551394
 20
126.921198
 11
143.966208
 21
127.568246
  0
LINE
  8
1
 62
7
  6
CONTINUOUS
 10
141.551394
 20
126.921198
 11
143.966208
 21
126.274151
  0
TEXT
  8
1
 62
7
  6
CONTINUOUS
 10
167.554529
 20
126.921198
 40
4.000000
 41
0.666667
  1
60φ
  7
KANJI
 50
0.000000
 51
0.000000
  0
ENDBLK
  0
BLOCK
  8
128
 62
7
  6
CONTINUOUS
  2
*D7
 70
    65
 10
0.0
 20
0.0
  0
LINE
  8
128
 62
7
  6
CONTINUOUS
 10
321.761027
 20
228.513244
 11
321.761027
 21
318.513244
  0
LINE
  8
128
 62
7
  6
CONTINUOUS
 10
321.261027
 20
228.513244
 11
341.907019
 21
228.513244
  0
LINE
  8
128
 62
7
  6
CONTINUOUS
 10
321.261027
 20
318.513244
 11
341.657099
 21
318.513244
  0
CIRCLE
  8
128
 62
7
  6
CONTINUOUS
 10
321.761027
 20
228.513244
 40
0.300000
  0
CIRCLE
  8
128
 62
7
  6
CONTINUOUS
 10
321.761027
 20
228.513244
 40
0.150000
  0
CIRCLE
  8
128
 62
7
  6
CONTINUOUS
 10
321.761027
 20
318.513244
 40
0.300000
  0
CIRCLE
  8
128
 62
7
  6
CONTINUOUS
 10
321.761027
 20
318.513244
 40
0.150000
  0
TEXT
  8
128
 62
7
  6
CONTINUOUS
 10
321.761027
 20
269.513244
 40
4.000000
 41
0.666667
  1
φ90
  7
KANJI
 50
90.000000
 51
0.000000
  0
ENDBLK
  0
BLOCK
  8
128
 62
7
  6
CONTINUOUS
  2
*D8
 70
    65
 10
0.0
 20
0.0
  0
LINE
  8
128
 62
7
  6
CONTINUOUS
 10
369.157099
 20
332.977498
 11
342.157099
 21
332.977498
  0
LINE
  8
128
 62
7
  6
CONTINUOUS
 10
369.157099
 20
333.477498
 11
369.157099
 21
319.013244
  0
LINE
  8
128
 62
7
  6
CONTINUOUS
 10
342.157099
 20
333.477498
 11
342.157099
 21
319.013244
  0
CIRCLE
  8
128
 62
7
  6
CONTINUOUS
 10
369.157099
 20
332.977498
 40
0.300000
  0
CIRCLE
  8
128
 62
7
  6
CONTINUOUS
 10
369.157099
 20
332.977498
 40
0.150000
  0
CIRCLE
  8
128
 62
7
  6
CONTINUOUS
 10
342.157099
 20
332.977498
 40
0.300000
  0
CIRCLE
  8
128
 62
7
  6
CONTINUOUS
 10
342.157099
 20
332.977498
 40
0.150000
  0
TEXT
  8
128
 62
7
  6
CONTINUOUS
 10
353.657099
 20
332.977498
 40
4.000000
 41
0.500000
  1
27
  7
KANJI
 50
0.000000
 51
0.000000
  0
ENDBLK
  0
ENDSEC
  0
SECTION
  2
ENTITIES
  0
LINE
  8
1
 62
7
  6
CONTINUOUS
 10
572.709391
 20
72.219520
 11
572.709391
 21
66.024601
  0
LINE
  8
1
 62
7
  6
CONTINUOUS
 10
572.709391
 20
66.024601
 11
572.709391
 21
72.219520
  0
LINE
  8
1
 62
7
  6
CONTINUOUS
 10
572.898714
 20
122.591332
 11
434.718714
 21
122.591332
  0
LINE
  8
1
 62
7
  6
CONTINUOUS
 10
434.718714
 20
114.695332
 11
572.898714
 21
114.695332
  0
LINE
  8
1
 62
7
  6
CONTINUOUS
 10
434.718714
 20
106.799332
 11
572.898714
 21
106.799332
  0
TEXT
  8
1
 62
7
  6
CONTINUOUS
 10
439.652697
 20
124.183440
 40
4.935000
 41
1.000000
  1
仕　様
  7
KANJI
 50
0.000000
 51
0.000000
  0
LINE
  8
1
 62
7
  6
CONTINUOUS
 10
434.706542
 20
124.100652
 11
459.375091
 21
124.100652
  0
TEXT
  8
1
 62
7
  6
CONTINUOUS
 10
439.708471
 20
116.186811
 40
4.935000
 41
1.080000
  1
電　源
  7
KANJI
 50
0.000000
 51
0.000000
  0
LINE
  8
1
 62
7
  6
CONTINUOUS
 10
434.718714
 20
98.903332
 11
572.898714
 21
98.903332
  0
LINE
  8
1
 62
7
  6
CONTINUOUS
 10
434.718714
 20
91.007332
 11
572.898714
 21
91.007332
  0
TEXT
  8
1
 62
7
  6
CONTINUOUS
 10
440.104064
 20
92.539466
 40
4.935000
 41
1.080000
  1
形　状
  7
KANJI
 50
0.000000
 51
0.000000
  0
TEXT
  8
1
 62
7
  6
CONTINUOUS
 10
440.104064
 20
84.643466
 40
4.935000
 41
1.080000
  1
表　示
  7
KANJI
 50
0.000000
 51
0.000000
  0
LINE
  8
1
 62
7
  6
CONTINUOUS
 10
459.416845
 20
83.111332
 11
572.898714
 21
83.111332
  0
TEXT
  8
1
 62
7
  6
CONTINUOUS
 10
462.483322
 20
116.186811
 40
4.935000
 41
0.540000
  1
DC24V 60mA
  7
KANJI
 50
0.000000
 51
0.000000
  0
TEXT
  8
1
 62
7
  6
CONTINUOUS
 10
462.051694
 20
77.253284
 40
4.935000
 41
0.863636
  1
赤色LED点灯で在車、緑色LED点灯で空車。
  7
KANJI
 50
0.000000
 51
0.000000
  0
TEXT
  8
1
 62
7
  6
CONTINUOUS
 10
462.144242
 20
84.699979
 40
4.935000
 41
1.080000
  1
高輝度ＬＥＤ仕様
  7
KANJI
 50
0.000000
 51
0.000000
  0
TEXT
  8
1
 62
7
  6
CONTINUOUS
 10
437.340578
 20
100.419607
 40
4.935000
 41
1.080000
  1
保護構造
  7
KANJI
 50
0.000000
 51
0.000000
  0
TEXT
  8
1
 62
7
  6
CONTINUOUS
 10
462.483322
 20
100.363094
 40
4.935000
 41
0.540000
  1
IP54
  7
KANJI
 50
0.000000
 51
0.000000
  0
TEXT
  8
1
 62
7
  6
CONTINUOUS
 10
444.898064
 20
108.190466
 40
4.935000
 41
1.080000
  1
色
  7
KANJI
 50
0.000000
 51
0.000000
  0
LINE
  8
1
 62
7
  6
CONTINUOUS
 10
434.718714
 20
75.215332
 11
572.898714
 21
75.215332
  0
TEXT
  8
1
 62
7
  6
CONTINUOUS
 10
440.104064
 20
68.530934
 40
4.935000
 41
1.080000
  1
その他
  7
KANJI
 50
0.000000
 51
0.000000
  0
LINE
  8
1
 62
7
  6
CONTINUOUS
 10
434.718714
 20
122.591332
 11
434.719469
 21
51.527332
  0
LINE
  8
1
 62
7
  6
CONTINUOUS
 10
459.333282
 20
51.527332
 11
459.333282
 21
122.591332
  0
LINE
  8
128
 62
7
  6
CONTINUOUS
 10
586.939187
 20
402.729484
 11
586.939187
 21
402.591676
  0
LINE
  8
1
 62
7
  6
CONTINUOUS
 10
574.087391
 20
339.571532
 11
579.599391
 21
339.571532
  0
LINE
  8
1
 62
7
  6
CONTINUOUS
 10
574.087391
 20
274.805532
 11
579.599391
 21
274.805532
  0
LINE
  8
1
 62
7
  6
CONTINUOUS
 10
574.087391
 20
210.039532
 11
579.599391
 21
210.039532
  0
LINE
  8
1
 62
7
  6
CONTINUOUS
 10
574.087391
 20
145.273532
 11
579.599391
 21
145.273532
  0
LINE
  8
1
 62
7
  6
CONTINUOUS
 10
574.087391
 20
80.507532
 11
579.599391
 21
80.507532
  0
TEXT
  8
128
 62
7
  6
CONTINUOUS
 10
574.081136
 20
369.934706
 40
4.134000
 41
1.050000
  1
1
  7
KANJI
 50
0.000000
 51
0.000000
  0
TEXT
  8
128
 62
7
  6
CONTINUOUS
 10
574.018491
 20
305.070356
 40
4.134000
 41
1.050000
  1
2
  7
KANJI
 50
0.000000
 51
0.000000
  0
TEXT
  8
128
 62
7
  6
CONTINUOUS
 10
574.018491
 20
240.089704
 40
4.134000
 41
1.050000
  1
3
  7
KANJI
 50
0.000000
 51
0.000000
  0
TEXT
  8
128
 62
7
  6
CONTINUOUS
 10
574.018491
 20
175.272602
 40
4.134000
 41
1.050000
  1
4
  7
KANJI
 50
0.000000
 51
0.000000
  0
TEXT
  8
128
 62
7
  6
CONTINUOUS
 10
574.018491
 20
110.791740
 40
4.134000
 41
1.050000
  1
5
  7
KANJI
 50
0.000000
 51
0.000000
  0
TEXT
  8
128
 62
7
  6
CONTINUOUS
 10
574.018491
 20
46.105477
 40
4.134000
 41
1.050000
  1
6
  7
KANJI
 50
0.000000
 51
0.000000
  0
LINE
  8
1
 62
7
  6
CONTINUOUS
 10
574.087391
 20
15.741532
 11
579.599391
 21
15.741532
  0
LINE
  8
1
 62
7
  6
CONTINUOUS
 10
574.087391
 20
404.337532
 11
579.599391
 21
404.337532
  0
LINE
  8
1
 62
7
  6
CONTINUOUS
 10
15.997391
 20
14.363532
 11
15.997391
 21
8.851532
  0
LINE
  8
1
 62
7
  6
CONTINUOUS
 10
85.586391
 20
14.363532
 11
85.586391
 21
8.851532
  0
LINE
  8
1
 62
7
  6
CONTINUOUS
 10
155.175391
 20
14.363532
 11
155.175391
 21
8.851532
  0
LINE
  8
1
 62
7
  6
CONTINUOUS
 10
224.764391
 20
14.363532
 11
224.764391
 21
8.851532
  0
LINE
  8
1
 62
7
  6
CONTINUOUS
 10
294.353391
 20
14.363532
 11
294.353391
 21
8.851532
  0
LINE
  8
1
 62
7
  6
CONTINUOUS
 10
363.942391
 20
14.363532
 11
363.942391
 21
8.851532
  0
LINE
  8
1
 62
7
  6
CONTINUOUS
 10
433.531391
 20
14.363532
 11
433.531391
 21
8.851532
  0
LINE
  8
1
 62
7
  6
CONTINUOUS
 10
503.120391
 20
14.363532
 11
503.120391
 21
8.851532
  0
LINE
  8
1
 62
7
  6
CONTINUOUS
 10
572.709391
 20
14.363532
 11
572.709391
 21
8.851532
  0
TEXT
  8
128
 62
7
  6
CONTINUOUS
 10
48.559954
 20
10.198915
 40
4.134000
 41
1.050000
  1
A
  7
KANJI
 50
0.000000
 51
0.000000
  0
TEXT
  8
128
 62
7
  6
CONTINUOUS
 10
118.094335
 20
10.226361
 40
4.134000
 41
1.050000
  1
B
  7
KANJI
 50
0.000000
 51
0.000000
  0
TEXT
  8
128
 62
7
  6
CONTINUOUS
 10
187.502611
 20
10.178857
 40
4.134000
 41
1.050000
  1
C
  7
KANJI
 50
0.000000
 51
0.000000
  0
TEXT
  8
128
 62
7
  6
CONTINUOUS
 10
256.867268
 20
10.226361
 40
4.134000
 41
1.050000
  1
D
  7
KANJI
 50
0.000000
 51
0.000000
  0
TEXT
  8
128
 62
7
  6
CONTINUOUS
 10
326.984251
 20
10.226361
 40
4.134000
 41
1.050000
  1
E
  7
KANJI
 50
0.000000
 51
0.000000
  0
TEXT
  8
128
 62
7
  6
CONTINUOUS
 10
396.316198
 20
10.095521
 40
4.134000
 41
1.050000
  1
F
  7
KANJI
 50
0.000000
 51
0.000000
  0
TEXT
  8
128
 62
7
  6
CONTINUOUS
 10
466.150571
 20
10.291781
 40
4.134000
 41
1.050000
  1
G
  7
KANJI
 50
0.000000
 51
0.000000
  0
TEXT
  8
128
 62
7
  6
CONTINUOUS
 10
535.859947
 20
10.226361
 40
4.134000
 41
1.050000
  1
H
  7
KANJI
 50
0.000000
 51
0.000000
  0
TEXT
  8
1
 62
7
  6
DASHDOT
 10
408.236516
 20
19.340015
 40
5.000000
 41
0.500000
  1
AEON-YXF-U0002
  7
KANJI
 50
0.000000
 51
0.000000
  0
LINE
  8
1
 62
7
  6
CONTINUOUS
 10
339.544838
 20
27.495650
 11
365.808466
 21
27.532059
  0
LINE
  8
1
 62
7
  6
CONTINUOUS
 10
339.725490
 20
35.542199
 11
365.603998
 21
35.582552
  0
CIRCLE
  8
1
 62
7
  6
CONTINUOUS
 10
352.671506
 20
31.226247
 40
13.646492
  0
TEXT
  8
1
 62
7
  6
CONTINUOUS
 10
343.230605
 20
36.838503
 40
4.635163
 41
1.000000
  1
エクノス
  7
KANJI
 50
-0.058139
 51
0.000000
  0
TEXT
  8
1
 62
7
  6
CONTINUOUS
 10
308.169256
 20
20.393310
 40
5.562196
 41
1.000000
  1
齋藤
  7
KANJI
 50
0.000000
 51
0.000000
  0
LINE
  8
1
 62
7
  6
CONTINUOUS
 10
300.515789
 20
27.609114
 11
326.779417
 21
27.645522
  0
LINE
  8
1
 62
7
  6
CONTINUOUS
 10
300.696441
 20
35.655663
 11
326.574949
 21
35.696016
  0
CIRCLE
  8
1
 62
7
  6
CONTINUOUS
 10
313.642457
 20
31.339711
 40
13.646492
  0
TEXT
  8
1
 62
7
  6
CONTINUOUS
 10
304.201557
 20
36.951966
 40
4.635163
 41
1.000000
  1
エクノス
  7
KANJI
 50
-0.058139
 51
0.000000
  0
TEXT
  8
1
 62
7
  6
CONTINUOUS
 10
268.061580
 20
20.271551
 40
5.562196
 41
1.000000
  1
佐藤
  7
KANJI
 50
-0.126303
 51
0.000000
  0
LINE
  8
1
 62
7
  6
CONTINUOUS
 10
260.408113
 20
27.487355
 11
286.671741
 21
27.523764
  0
LINE
  8
1
 62
7
  6
CONTINUOUS
 10
260.588765
 20
35.533904
 11
286.467273
 21
35.574257
  0
CIRCLE
  8
1
 62
7
  6
CONTINUOUS
 10
273.534781
 20
31.217952
 40
13.646492
  0
TEXT
  8
1
 62
7
  6
CONTINUOUS
 10
264.093881
 20
36.830208
 40
4.635163
 41
1.000000
  1
エクノス
  7
KANJI
 50
-0.058139
 51
0.000000
  0
TEXT
  8
1
 62
7
  6
CONTINUOUS
 10
462.144242
 20
92.595979
 40
4.935000
 41
1.080000
  1
天吊り又は壁取付型
  7
KANJI
 50
0.000000
 51
0.000000
  0
TEXT
  8
1
 62
7
  6
CONTINUOUS
 10
347.198305
 20
20.279846
 40
5.562196
 41
1.000000
  1
齋藤
  7
KANJI
 50
-0.347091
 51
0.000000
  0
LINE
  8
128
 62
7
  6
CONTINUOUS
 10
201.067665
 20
192.513244
 11
142.067665
 21
192.513244
  0
CIRCLE
  8
128
 62
7
  6
CONTINUOUS
 10
199.111665
 20
231.381244
 40
0.500000
  0
LINE
  8
128
 62
7
  6
CONTINUOUS
 10
201.567665
 20
232.013244
 11
201.067665
 21
232.513244
  0
LINE
  8
128
 62
7
  6
CONTINUOUS
 10
141.567665
 20
232.013244
 11
142.067665
 21
232.513244
  0
LINE
  8
128
 62
7
  6
CONTINUOUS
 10
201.567665
 20
194.863244
 11
141.569665
 21
194.863244
  0
ARC
  8
128
 62
7
  6
CONTINUOUS
 10
139.117665
 20
197.363244
 40
3.500000
 50
-45.584691
 51
42.491934
  0
ARC
  8
128
 62
7
  6
CONTINUOUS
 10
137.129665
 20
216.113244
 40
5.500000
 50
-34.629559
 51
34.629559
  0
ARC
  8
128
 62
7
  6
CONTINUOUS
 10
137.129665
 20
209.113244
 40
5.500000
 50
-34.629559
 51
34.629559
  0
ARC
  8
128
 62
7
  6
CONTINUOUS
 10
139.117665
 20
202.863244
 40
3.500000
 50
-42.491934
 51
42.491934
  0
ARC
  8
128
 62
7
  6
CONTINUOUS
 10
139.117665
 20
222.363244
 40
3.500000
 50
-42.491934
 51
42.491934
  0
ARC
  8
128
 62
7
  6
CONTINUOUS
 10
139.117665
 20
227.863244
 40
3.500000
 50
-42.491934
 51
45.584692
  0
LINE
  8
128
 62
7
  6
CONTINUOUS
 10
141.567665
 20
193.013244
 11
141.567665
 21
194.863244
  0
LINE
  8
128
 62
7
  6
CONTINUOUS
 10
201.567665
 20
200.113244
 11
141.569665
 21
200.113244
  0
LINE
  8
128
 62
7
  6
CONTINUOUS
 10
201.567665
 20
205.569244
 11
141.567665
 21
205.569244
  0
LINE
  8
128
 62
7
  6
CONTINUOUS
 10
201.567665
 20
212.613244
 11
141.567665
 21
212.613244
  0
LINE
  8
128
 62
7
  6
CONTINUOUS
 10
201.567665
 20
219.655244
 11
141.567665
 21
219.655244
  0
LINE
  8
128
 62
7
  6
CONTINUOUS
 10
201.567665
 20
225.113244
 11
141.567665
 21
225.113244
  0
LINE
  8
128
 62
7
  6
CONTINUOUS
 10
201.567665
 20
230.363244
 11
141.567665
 21
230.363244
  0
LINE
  8
128
 62
7
  6
CONTINUOUS
 10
141.567665
 20
225.065244
 11
141.567665
 21
225.161244
  0
LINE
  8
128
 62
7
  6
CONTINUOUS
 10
141.567665
 20
200.161244
 11
141.567665
 21
200.065244
  0
LINE
  8
128
 62
7
  6
CONTINUOUS
 10
141.567665
 20
205.565244
 11
141.567665
 21
205.703244
  0
LINE
  8
128
 62
7
  6
CONTINUOUS
 10
141.567665
 20
212.521244
 11
141.567665
 21
212.703244
  0
LINE
  8
128
 62
7
  6
CONTINUOUS
 10
141.567665
 20
219.521244
 11
141.567665
 21
219.661244
  0
ARC
  8
128
 62
7
  6
CONTINUOUS
 10
142.067665
 20
200.065244
 40
0.500000
 50
180.000000
 51
-137.508066
  0
ARC
  8
128
 62
7
  6
CONTINUOUS
 10
142.067665
 20
200.161244
 40
0.500000
 50
137.508066
 51
180.000000
  0
ARC
  8
128
 62
7
  6
CONTINUOUS
 10
142.067665
 20
205.565244
 40
0.500000
 50
180.000000
 51
-137.508066
  0
ARC
  8
128
 62
7
  6
CONTINUOUS
 10
142.067665
 20
205.703244
 40
0.500000
 50
145.370441
 51
180.000000
  0
ARC
  8
128
 62
7
  6
CONTINUOUS
 10
142.067665
 20
212.521244
 40
0.500000
 50
180.000000
 51
-145.370441
  0
ARC
  8
128
 62
7
  6
CONTINUOUS
 10
142.067665
 20
212.703244
 40
0.500000
 50
145.370441
 51
180.000000
  0
ARC
  8
128
 62
7
  6
CONTINUOUS
 10
142.067665
 20
219.521244
 40
0.500000
 50
180.000000
 51
-145.370441
  0
ARC
  8
128
 62
7
  6
CONTINUOUS
 10
142.067665
 20
219.661244
 40
0.500000
 50
137.508066
 51
180.000000
  0
ARC
  8
128
 62
7
  6
CONTINUOUS
 10
142.067665
 20
225.065244
 40
0.500000
 50
180.000000
 51
-137.508066
  0
ARC
  8
128
 62
7
  6
CONTINUOUS
 10
142.067665
 20
225.161244
 40
0.500000
 50
137.508066
 51
180.000000
  0
ARC
  8
128
 62
7
  6
CONTINUOUS
 10
204.017665
 20
227.863244
 40
3.500000
 50
134.415308
 51
-137.508066
  0
ARC
  8
128
 62
7
  6
CONTINUOUS
 10
204.017665
 20
222.363244
 40
3.500000
 50
137.508066
 51
-137.508066
  0
ARC
  8
128
 62
7
  6
CONTINUOUS
 10
204.017665
 20
202.863244
 40
3.500000
 50
137.508066
 51
-137.508066
  0
ARC
  8
128
 62
7
  6
CONTINUOUS
 10
206.003665
 20
209.113244
 40
5.500000
 50
145.370441
 51
-145.370441
  0
ARC
  8
128
 62
7
  6
CONTINUOUS
 10
206.003665
 20
216.113244
 40
5.500000
 50
145.370441
 51
-145.370441
  0
ARC
  8
128
 62
7
  6
CONTINUOUS
 10
204.017665
 20
197.363244
 40
3.500000
 50
137.508066
 51
-134.415309
  0
ARC
  8
128
 62
7
  6
CONTINUOUS
 10
201.067665
 20
225.161244
 40
0.500000
 50
0.000000
 51
42.491934
  0
ARC
  8
128
 62
7
  6
CONTINUOUS
 10
201.067665
 20
225.065244
 40
0.500000
 50
-42.491934
 51
0.000000
  0
ARC
  8
128
 62
7
  6
CONTINUOUS
 10
201.067665
 20
219.661244
 40
0.500000
 50
0.000000
 51
42.491934
  0
ARC
  8
128
 62
7
  6
CONTINUOUS
 10
201.067665
 20
205.565244
 40
0.500000
 50
-42.491934
 51
-0.000000
  0
ARC
  8
128
 62
7
  6
CONTINUOUS
 10
201.067665
 20
200.161244
 40
0.500000
 50
-0.000000
 51
42.491934
  0
ARC
  8
128
 62
7
  6
CONTINUOUS
 10
201.067665
 20
200.065244
 40
0.500000
 50
-42.491934
 51
-0.000000
  0
LINE
  8
128
 62
7
  6
CONTINUOUS
 10
201.567665
 20
219.521244
 11
201.567665
 21
219.661244
  0
LINE
  8
128
 62
7
  6
CONTINUOUS
 10
201.567665
 20
212.521244
 11
201.567665
 21
212.703244
  0
LINE
  8
128
 62
7
  6
CONTINUOUS
 10
201.567665
 20
205.565244
 11
201.567665
 21
205.703244
  0
LINE
  8
128
 62
7
  6
CONTINUOUS
 10
201.567665
 20
200.161244
 11
201.567665
 21
200.065244
  0
LINE
  8
128
 62
7
  6
CONTINUOUS
 10
201.567665
 20
225.065244
 11
201.567665
 21
225.161244
  0
ARC
  8
128
 62
7
  6
CONTINUOUS
 10
201.067665
 20
205.703244
 40
0.500000
 50
-0.000000
 51
34.629559
  0
ARC
  8
128
 62
7
  6
CONTINUOUS
 10
201.067665
 20
212.521244
 40
0.500000
 50
-34.629559
 51
0.000000
  0
ARC
  8
128
 62
7
  6
CONTINUOUS
 10
201.067665
 20
212.703244
 40
0.500000
 50
0.000000
 51
34.629559
  0
ARC
  8
128
 62
7
  6
CONTINUOUS
 10
201.067665
 20
219.521244
 40
0.500000
 50
-34.629559
 51
0.000000
  0
LINE
  8
128
 62
7
  6
CONTINUOUS
 10
201.567665
 20
193.013244
 11
201.567665
 21
194.863244
  0
LINE
  8
128
 62
7
  6
HIDDEN
 10
150.617665
 20
222.313244
 11
167.817665
 21
205.113244
  0
LINE
  8
128
 62
7
  6
CONTINUOUS
 10
174.425665
 20
194.513244
 11
174.425665
 21
227.513244
  0
LINE
  8
128
 62
7
  6
CONTINUOUS
 10
197.903665
 20
227.513244
 11
197.327665
 21
194.513244
  0
LINE
  8
128
 62
7
  6
CONTINUOUS
 10
177.129665
 20
194.513244
 11
177.129665
 21
227.513244
  0
LINE
  8
128
 62
7
  6
CONTINUOUS
 10
179.835665
 20
194.513244
 11
179.835665
 21
227.513244
  0
LINE
  8
128
 62
7
  6
CONTINUOUS
 10
182.449665
 20
194.513244
 11
182.449665
 21
227.513244
  0
LINE
  8
128
 62
7
  6
CONTINUOUS
 10
184.945665
 20
194.513244
 11
184.945665
 21
227.513244
  0
LINE
  8
128
 62
7
  6
CONTINUOUS
 10
187.295665
 20
194.513244
 11
187.295665
 21
227.513244
  0
LINE
  8
128
 62
7
  6
CONTINUOUS
 10
189.471665
 20
194.513244
 11
189.471665
 21
227.513244
  0
LINE
  8
128
 62
7
  6
CONTINUOUS
 10
191.451665
 20
194.513244
 11
191.451665
 21
227.513244
  0
LINE
  8
128
 62
7
  6
CONTINUOUS
 10
193.215665
 20
194.513244
 11
193.215665
 21
227.513244
  0
LINE
  8
128
 62
7
  6
CONTINUOUS
 10
194.739665
 20
194.513244
 11
194.739665
 21
227.513244
  0
LINE
  8
128
 62
7
  6
CONTINUOUS
 10
196.011665
 20
194.513244
 11
196.011665
 21
227.513244
  0
LINE
  8
128
 62
7
  6
CONTINUOUS
 10
197.015665
 20
194.513244
 11
197.015665
 21
227.513244
  0
LINE
  8
128
 62
7
  6
HIDDEN
 10
192.617665
 20
222.313244
 11
196.517665
 21
226.213244
  0
LINE
  8
128
 62
7
  6
HIDDEN
 10
192.517665
 20
222.313244
 11
175.317665
 21
205.113244
  0
LINE
  8
128
 62
7
  6
CONTINUOUS
 10
147.123665
 20
194.513244
 11
147.123665
 21
227.513244
  0
LINE
  8
128
 62
7
  6
CONTINUOUS
 10
146.119665
 20
194.513244
 11
146.119665
 21
227.513244
  0
LINE
  8
128
 62
7
  6
CONTINUOUS
 10
168.709665
 20
194.513244
 11
168.709665
 21
227.513244
  0
LINE
  8
128
 62
7
  6
HIDDEN
 10
150.517665
 20
222.313244
 11
146.617665
 21
226.213244
  0
LINE
  8
128
 62
7
  6
CONTINUOUS
 10
166.003665
 20
194.513244
 11
166.003665
 21
227.513244
  0
LINE
  8
128
 62
7
  6
CONTINUOUS
 10
163.299665
 20
194.513244
 11
163.299665
 21
227.513244
  0
LINE
  8
128
 62
7
  6
CONTINUOUS
 10
160.683665
 20
194.513244
 11
160.683665
 21
227.513244
  0
LINE
  8
128
 62
7
  6
CONTINUOUS
 10
158.187665
 20
194.513244
 11
158.187665
 21
227.513244
  0
LINE
  8
128
 62
7
  6
CONTINUOUS
 10
155.839665
 20
194.513244
 11
155.839665
 21
227.513244
  0
LINE
  8
128
 62
7
  6
CONTINUOUS
 10
153.663665
 20
194.513244
 11
153.663665
 21
227.513244
  0
LINE
  8
128
 62
7
  6
CONTINUOUS
 10
151.681665
 20
194.513244
 11
151.681665
 21
227.513244
  0
LINE
  8
128
 62
7
  6
CONTINUOUS
 10
149.919665
 20
194.513244
 11
149.919665
 21
227.513244
  0
LINE
  8
128
 62
7
  6
CONTINUOUS
 10
148.393665
 20
194.513244
 11
148.393665
 21
227.513244
  0
LINE
  8
128
 62
7
  6
CONTINUOUS
 10
145.231665
 20
227.513244
 11
145.807665
 21
194.513244
  0
LINE
  8
128
 62
7
  6
HIDDEN
 10
146.617665
 20
226.213244
 11
196.517665
 21
226.213244
  0
LINE
  8
128
 62
7
  6
HIDDEN
 10
144.317665
 20
231.013244
 11
198.817665
 21
231.013244
  0
LINE
  8
128
 62
7
  6
HIDDEN
 10
147.067665
 20
194.113244
 11
196.067665
 21
194.113244
  0
LINE
  8
128
 62
7
  6
HIDDEN
 10
167.817665
 20
205.113244
 11
175.317665
 21
205.113244
  0
LINE
  8
128
 62
7
  6
HIDDEN
 10
167.817665
 20
194.113244
 11
167.817665
 21
205.113244
  0
LINE
  8
128
 62
7
  6
HIDDEN
 10
175.317665
 20
194.113244
 11
175.317665
 21
205.113244
  0
LINE
  8
128
 62
7
  6
HIDDEN
 10
160.041665
 20
195.113244
 11
165.541665
 21
195.113244
  0
LINE
  8
128
 62
7
  6
HIDDEN
 10
165.541665
 20
194.113244
 11
165.541665
 21
195.113244
  0
LINE
  8
128
 62
7
  6
HIDDEN
 10
165.291665
 20
195.113244
 11
165.291665
 21
201.613244
  0
LINE
  8
128
 62
7
  6
HIDDEN
 10
160.041665
 20
194.113244
 11
160.041665
 21
195.113244
  0
LINE
  8
128
 62
7
  6
HIDDEN
 10
160.291665
 20
195.113244
 11
160.291665
 21
201.613244
  0
ARC
  8
128
 62
7
  6
HIDDEN
 10
162.791665
 20
201.613244
 40
2.500000
 50
0.000000
 51
180.000000
  0
ARC
  8
128
 62
7
  6
HIDDEN
 10
180.041665
 20
201.613244
 40
2.500000
 50
0.000000
 51
180.000000
  0
LINE
  8
128
 62
7
  6
HIDDEN
 10
177.541665
 20
195.113244
 11
177.541665
 21
201.613244
  0
LINE
  8
128
 62
7
  6
HIDDEN
 10
182.541665
 20
195.113244
 11
182.541665
 21
201.613244
  0
LINE
  8
128
 62
7
  6
HIDDEN
 10
177.291665
 20
195.113244
 11
182.791665
 21
195.113244
  0
LINE
  8
128
 62
7
  6
HIDDEN
 10
182.791665
 20
194.113244
 11
182.791665
 21
195.113244
  0
LINE
  8
128
 62
7
  6
HIDDEN
 10
177.291665
 20
194.113244
 11
177.291665
 21
195.113244
  0
ARC
  8
128
 62
7
  6
HIDDEN
 10
198.817665
 20
231.763244
 40
0.750000
 50
-90.000000
 51
90.000000
  0
ARC
  8
128
 62
7
  6
HIDDEN
 10
144.317665
 20
231.763244
 40
0.750000
 50
90.000000
 51
-90.000000
  0
LINE
  8
128
 62
7
  6
CONTINUOUS
 10
201.567665
 20
230.363244
 11
201.567665
 21
232.013244
  0
LINE
  8
128
 62
7
  6
CONTINUOUS
 10
141.567665
 20
230.363244
 11
141.567665
 21
232.013244
  0
LINE
  8
128
 62
7
  6
CONTINUOUS
 10
201.067665
 20
192.513244
 11
201.567665
 21
193.013244
  0
LINE
  8
128
 62
7
  6
CONTINUOUS
 10
142.067665
 20
192.513244
 11
141.567665
 21
193.013244
  0
LINE
  8
128
 62
7
  6
HIDDEN
 10
196.067665
 20
192.513244
 11
196.067665
 21
194.113244
  0
LINE
  8
128
 62
7
  6
HIDDEN
 10
147.067665
 20
192.513244
 11
147.067665
 21
194.113244
  0
LINE
  8
128
 62
7
  6
CONTINUOUS
 10
141.567665
 20
190.363244
 11
141.567665
 21
192.013244
  0
LINE
  8
128
 62
7
  6
CONTINUOUS
 10
141.567665
 20
192.013244
 11
142.067665
 21
192.513244
  0
LINE
  8
128
 62
7
  6
CONTINUOUS
 10
201.567665
 20
192.013244
 11
201.067665
 21
192.513244
  0
ARC
  8
128
 62
7
  6
CONTINUOUS
 10
197.949665
 20
245.179244
 40
3.618000
 50
-0.026662
 51
2.884268
  0
LINE
  8
128
 62
7
  6
CONTINUOUS
 10
201.567665
 20
233.013244
 11
201.567665
 21
245.175244
  0
LINE
  8
128
 62
7
  6
CONTINUOUS
 10
141.567665
 20
245.175244
 11
141.567665
 21
233.013244
  0
ARC
  8
128
 62
7
  6
CONTINUOUS
 10
145.185665
 20
245.179244
 40
3.618000
 50
177.115856
 51
-179.973450
  0
LINE
  8
128
 62
7
  6
CONTINUOUS
 10
141.571665
 20
272.401244
 11
141.571665
 21
245.361244
  0
LINE
  8
128
 62
7
  6
CONTINUOUS
 10
201.559665
 20
272.291244
 11
201.563665
 21
272.401244
  0
LINE
  8
128
 62
7
  6
CONTINUOUS
 10
201.557665
 20
272.183244
 11
201.559665
 21
272.291244
  0
LINE
  8
128
 62
7
  6
CONTINUOUS
 10
201.553665
 20
272.073244
 11
201.557665
 21
272.183244
  0
LINE
  8
128
 62
7
  6
CONTINUOUS
 10
201.549665
 20
271.963244
 11
201.553665
 21
272.073244
  0
LINE
  8
128
 62
7
  6
CONTINUOUS
 10
201.545665
 20
271.855244
 11
201.549665
 21
271.963244
  0
LINE
  8
128
 62
7
  6
CONTINUOUS
 10
201.539665
 20
271.745244
 11
201.545665
 21
271.855244
  0
LINE
  8
128
 62
7
  6
CONTINUOUS
 10
201.533665
 20
271.637244
 11
201.539665
 21
271.745244
  0
LINE
  8
128
 62
7
  6
CONTINUOUS
 10
201.527665
 20
271.527244
 11
201.533665
 21
271.637244
  0
LINE
  8
128
 62
7
  6
CONTINUOUS
 10
201.521665
 20
271.419244
 11
201.527665
 21
271.527244
  0
LINE
  8
128
 62
7
  6
CONTINUOUS
 10
201.513665
 20
271.309244
 11
201.521665
 21
271.419244
  0
LINE
  8
128
 62
7
  6
CONTINUOUS
 10
201.493665
 20
271.033244
 11
201.513665
 21
271.309244
  0
LINE
  8
128
 62
7
  6
CONTINUOUS
 10
201.469665
 20
270.759244
 11
201.493665
 21
271.033244
  0
LINE
  8
128
 62
7
  6
CONTINUOUS
 10
201.441665
 20
270.485244
 11
201.469665
 21
270.759244
  0
LINE
  8
128
 62
7
  6
CONTINUOUS
 10
201.411665
 20
270.209244
 11
201.441665
 21
270.485244
  0
LINE
  8
128
 62
7
  6
CONTINUOUS
 10
201.377665
 20
269.935244
 11
201.411665
 21
270.209244
  0
LINE
  8
128
 62
7
  6
CONTINUOUS
 10
201.339665
 20
269.663244
 11
201.377665
 21
269.935244
  0
LINE
  8
128
 62
7
  6
CONTINUOUS
 10
201.299665
 20
269.389244
 11
201.339665
 21
269.663244
  0
LINE
  8
128
 62
7
  6
CONTINUOUS
 10
201.255665
 20
269.117244
 11
201.299665
 21
269.389244
  0
LINE
  8
128
 62
7
  6
CONTINUOUS
 10
201.207665
 20
268.845244
 11
201.255665
 21
269.117244
  0
LINE
  8
128
 62
7
  6
CONTINUOUS
 10
201.157665
 20
268.573244
 11
201.207665
 21
268.845244
  0
LINE
  8
128
 62
7
  6
CONTINUOUS
 10
201.129665
 20
268.431244
 11
201.157665
 21
268.573244
  0
LINE
  8
128
 62
7
  6
CONTINUOUS
 10
201.099665
 20
268.287244
 11
201.129665
 21
268.431244
  0
LINE
  8
128
 62
7
  6
CONTINUOUS
 10
201.071665
 20
268.145244
 11
201.099665
 21
268.287244
  0
LINE
  8
128
 62
7
  6
CONTINUOUS
 10
201.039665
 20
268.003244
 11
201.071665
 21
268.145244
  0
LINE
  8
128
 62
7
  6
CONTINUOUS
 10
201.007665
 20
267.861244
 11
201.039665
 21
268.003244
  0
LINE
  8
128
 62
7
  6
CONTINUOUS
 10
200.975665
 20
267.719244
 11
201.007665
 21
267.861244
  0
LINE
  8
128
 62
7
  6
CONTINUOUS
 10
200.943665
 20
267.577244
 11
200.975665
 21
267.719244
  0
LINE
  8
128
 62
7
  6
CONTINUOUS
 10
200.907665
 20
267.437244
 11
200.943665
 21
267.577244
  0
LINE
  8
128
 62
7
  6
CONTINUOUS
 10
200.873665
 20
267.295244
 11
200.907665
 21
267.437244
  0
LINE
  8
128
 62
7
  6
CONTINUOUS
 10
200.837665
 20
267.155244
 11
200.873665
 21
267.295244
  0
LINE
  8
128
 62
7
  6
CONTINUOUS
 10
200.803665
 20
267.025244
 11
200.837665
 21
267.155244
  0
LINE
  8
128
 62
7
  6
CONTINUOUS
 10
200.767665
 20
266.895244
 11
200.803665
 21
267.025244
  0
LINE
  8
128
 62
7
  6
CONTINUOUS
 10
200.731665
 20
266.765244
 11
200.767665
 21
266.895244
  0
LINE
  8
128
 62
7
  6
CONTINUOUS
 10
200.695665
 20
266.635244
 11
200.731665
 21
266.765244
  0
LINE
  8
128
 62
7
  6
CONTINUOUS
 10
200.659665
 20
266.507244
 11
200.695665
 21
266.635244
  0
LINE
  8
128
 62
7
  6
CONTINUOUS
 10
200.621665
 20
266.377244
 11
200.659665
 21
266.507244
  0
LINE
  8
128
 62
7
  6
CONTINUOUS
 10
200.583665
 20
266.249244
 11
200.621665
 21
266.377244
  0
LINE
  8
128
 62
7
  6
CONTINUOUS
 10
200.543665
 20
266.121244
 11
200.583665
 21
266.249244
  0
LINE
  8
128
 62
7
  6
CONTINUOUS
 10
200.503665
 20
265.993244
 11
200.543665
 21
266.121244
  0
LINE
  8
128
 62
7
  6
CONTINUOUS
 10
200.461665
 20
265.865244
 11
200.503665
 21
265.993244
  0
LINE
  8
128
 62
7
  6
CONTINUOUS
 10
200.419665
 20
265.735244
 11
200.461665
 21
265.865244
  0
LINE
  8
128
 62
7
  6
CONTINUOUS
 10
200.377665
 20
265.607244
 11
200.419665
 21
265.735244
  0
LINE
  8
128
 62
7
  6
CONTINUOUS
 10
200.333665
 20
265.477244
 11
200.377665
 21
265.607244
  0
LINE
  8
128
 62
7
  6
CONTINUOUS
 10
200.289665
 20
265.349244
 11
200.333665
 21
265.477244
  0
LINE
  8
128
 62
7
  6
CONTINUOUS
 10
200.243665
 20
265.221244
 11
200.289665
 21
265.349244
  0
LINE
  8
128
 62
7
  6
CONTINUOUS
 10
200.199665
 20
265.093244
 11
200.243665
 21
265.221244
  0
LINE
  8
128
 62
7
  6
CONTINUOUS
 10
200.151665
 20
264.965244
 11
200.199665
 21
265.093244
  0
LINE
  8
128
 62
7
  6
CONTINUOUS
 10
200.105665
 20
264.837244
 11
200.151665
 21
264.965244
  0
LINE
  8
128
 62
7
  6
CONTINUOUS
 10
200.057665
 20
264.711244
 11
200.105665
 21
264.837244
  0
LINE
  8
128
 62
7
  6
CONTINUOUS
 10
200.007665
 20
264.583244
 11
200.057665
 21
264.711244
  0
LINE
  8
128
 62
7
  6
CONTINUOUS
 10
199.959665
 20
264.459244
 11
200.007665
 21
264.583244
  0
LINE
  8
128
 62
7
  6
CONTINUOUS
 10
199.911665
 20
264.335244
 11
199.959665
 21
264.459244
  0
LINE
  8
128
 62
7
  6
CONTINUOUS
 10
199.861665
 20
264.213244
 11
199.911665
 21
264.335244
  0
LINE
  8
128
 62
7
  6
CONTINUOUS
 10
199.811665
 20
264.089244
 11
199.861665
 21
264.213244
  0
LINE
  8
128
 62
7
  6
CONTINUOUS
 10
199.759665
 20
263.967244
 11
199.811665
 21
264.089244
  0
LINE
  8
128
 62
7
  6
CONTINUOUS
 10
199.707665
 20
263.845244
 11
199.759665
 21
263.967244
  0
LINE
  8
128
 62
7
  6
CONTINUOUS
 10
199.655665
 20
263.723244
 11
199.707665
 21
263.845244
  0
LINE
  8
128
 62
7
  6
CONTINUOUS
 10
199.601665
 20
263.601244
 11
199.655665
 21
263.723244
  0
LINE
  8
128
 62
7
  6
CONTINUOUS
 10
199.547665
 20
263.479244
 11
199.601665
 21
263.601244
  0
LINE
  8
128
 62
7
  6
CONTINUOUS
 10
199.493665
 20
263.357244
 11
199.547665
 21
263.479244
  0
LINE
  8
128
 62
7
  6
CONTINUOUS
 10
199.389665
 20
263.131244
 11
199.493665
 21
263.357244
  0
LINE
  8
128
 62
7
  6
CONTINUOUS
 10
199.283665
 20
262.905244
 11
199.389665
 21
263.131244
  0
LINE
  8
128
 62
7
  6
CONTINUOUS
 10
199.175665
 20
262.681244
 11
199.283665
 21
262.905244
  0
LINE
  8
128
 62
7
  6
CONTINUOUS
 10
199.063665
 20
262.457244
 11
199.175665
 21
262.681244
  0
LINE
  8
128
 62
7
  6
CONTINUOUS
 10
198.949665
 20
262.235244
 11
199.063665
 21
262.457244
  0
LINE
  8
128
 62
7
  6
CONTINUOUS
 10
198.835665
 20
262.015244
 11
198.949665
 21
262.235244
  0
LINE
  8
128
 62
7
  6
CONTINUOUS
 10
198.717665
 20
261.795244
 11
198.835665
 21
262.015244
  0
LINE
  8
128
 62
7
  6
CONTINUOUS
 10
198.597665
 20
261.575244
 11
198.717665
 21
261.795244
  0
LINE
  8
128
 62
7
  6
CONTINUOUS
 10
198.473665
 20
261.359244
 11
198.597665
 21
261.575244
  0
LINE
  8
128
 62
7
  6
CONTINUOUS
 10
198.349665
 20
261.143244
 11
198.473665
 21
261.359244
  0
LINE
  8
128
 62
7
  6
CONTINUOUS
 10
198.143665
 20
260.793244
 11
198.349665
 21
261.143244
  0
LINE
  8
128
 62
7
  6
CONTINUOUS
 10
197.929665
 20
260.449244
 11
198.143665
 21
260.793244
  0
LINE
  8
128
 62
7
  6
CONTINUOUS
 10
197.711665
 20
260.107244
 11
197.929665
 21
260.449244
  0
LINE
  8
128
 62
7
  6
CONTINUOUS
 10
197.487665
 20
259.769244
 11
197.711665
 21
260.107244
  0
LINE
  8
128
 62
7
  6
CONTINUOUS
 10
197.259665
 20
259.435244
 11
197.487665
 21
259.769244
  0
LINE
  8
128
 62
7
  6
CONTINUOUS
 10
197.025665
 20
259.103244
 11
197.259665
 21
259.435244
  0
LINE
  8
128
 62
7
  6
CONTINUOUS
 10
196.785665
 20
258.777244
 11
197.025665
 21
259.103244
  0
LINE
  8
128
 62
7
  6
CONTINUOUS
 10
196.541665
 20
258.453244
 11
196.785665
 21
258.777244
  0
LINE
  8
128
 62
7
  6
CONTINUOUS
 10
196.291665
 20
258.133244
 11
196.541665
 21
258.453244
  0
LINE
  8
128
 62
7
  6
CONTINUOUS
 10
196.037665
 20
257.817244
 11
196.291665
 21
258.133244
  0
LINE
  8
128
 62
7
  6
CONTINUOUS
 10
195.877665
 20
257.625244
 11
196.037665
 21
257.817244
  0
LINE
  8
128
 62
7
  6
CONTINUOUS
 10
195.715665
 20
257.433244
 11
195.877665
 21
257.625244
  0
LINE
  8
128
 62
7
  6
CONTINUOUS
 10
195.553665
 20
257.243244
 11
195.715665
 21
257.433244
  0
LINE
  8
128
 62
7
  6
CONTINUOUS
 10
195.387665
 20
257.055244
 11
195.553665
 21
257.243244
  0
LINE
  8
128
 62
7
  6
CONTINUOUS
 10
195.221665
 20
256.867244
 11
195.387665
 21
257.055244
  0
LINE
  8
128
 62
7
  6
CONTINUOUS
 10
195.053665
 20
256.681244
 11
195.221665
 21
256.867244
  0
LINE
  8
128
 62
7
  6
CONTINUOUS
 10
194.883665
 20
256.499244
 11
195.053665
 21
256.681244
  0
LINE
  8
128
 62
7
  6
CONTINUOUS
 10
194.711665
 20
256.315244
 11
194.883665
 21
256.499244
  0
LINE
  8
128
 62
7
  6
CONTINUOUS
 10
194.539665
 20
256.135244
 11
194.711665
 21
256.315244
  0
LINE
  8
128
 62
7
  6
CONTINUOUS
 10
194.363665
 20
255.957244
 11
194.539665
 21
256.135244
  0
LINE
  8
128
 62
7
  6
CONTINUOUS
 10
194.193665
 20
255.785244
 11
194.363665
 21
255.957244
  0
LINE
  8
128
 62
7
  6
CONTINUOUS
 10
194.021665
 20
255.615244
 11
194.193665
 21
255.785244
  0
LINE
  8
128
 62
7
  6
CONTINUOUS
 10
193.847665
 20
255.447244
 11
194.021665
 21
255.615244
  0
LINE
  8
128
 62
7
  6
CONTINUOUS
 10
193.673665
 20
255.279244
 11
193.847665
 21
255.447244
  0
LINE
  8
128
 62
7
  6
CONTINUOUS
 10
193.497665
 20
255.115244
 11
193.673665
 21
255.279244
  0
LINE
  8
128
 62
7
  6
CONTINUOUS
 10
193.319665
 20
254.951244
 11
193.497665
 21
255.115244
  0
LINE
  8
128
 62
7
  6
CONTINUOUS
 10
193.139665
 20
254.789244
 11
193.319665
 21
254.951244
  0
LINE
  8
128
 62
7
  6
CONTINUOUS
 10
192.959665
 20
254.627244
 11
193.139665
 21
254.789244
  0
LINE
  8
128
 62
7
  6
CONTINUOUS
 10
192.777665
 20
254.469244
 11
192.959665
 21
254.627244
  0
LINE
  8
128
 62
7
  6
CONTINUOUS
 10
192.593665
 20
254.311244
 11
192.777665
 21
254.469244
  0
LINE
  8
128
 62
7
  6
CONTINUOUS
 10
192.269665
 20
254.037244
 11
192.593665
 21
254.311244
  0
LINE
  8
128
 62
7
  6
CONTINUOUS
 10
191.939665
 20
253.771244
 11
192.269665
 21
254.037244
  0
LINE
  8
128
 62
7
  6
CONTINUOUS
 10
191.607665
 20
253.507244
 11
191.939665
 21
253.771244
  0
LINE
  8
128
 62
7
  6
CONTINUOUS
 10
191.269665
 20
253.249244
 11
191.607665
 21
253.507244
  0
LINE
  8
128
 62
7
  6
CONTINUOUS
 10
190.929665
 20
252.995244
 11
191.269665
 21
253.249244
  0
LINE
  8
128
 62
7
  6
CONTINUOUS
 10
190.583665
 20
252.747244
 11
190.929665
 21
252.995244
  0
LINE
  8
128
 62
7
  6
CONTINUOUS
 10
190.235665
 20
252.505244
 11
190.583665
 21
252.747244
  0
LINE
  8
128
 62
7
  6
CONTINUOUS
 10
189.885665
 20
252.267244
 11
190.235665
 21
252.505244
  0
LINE
  8
128
 62
7
  6
CONTINUOUS
 10
189.529665
 20
252.033244
 11
189.885665
 21
252.267244
  0
LINE
  8
128
 62
7
  6
CONTINUOUS
 10
189.171665
 20
251.805244
 11
189.529665
 21
252.033244
  0
LINE
  8
128
 62
7
  6
CONTINUOUS
 10
188.815665
 20
251.585244
 11
189.171665
 21
251.805244
  0
LINE
  8
128
 62
7
  6
CONTINUOUS
 10
188.455665
 20
251.369244
 11
188.815665
 21
251.585244
  0
LINE
  8
128
 62
7
  6
CONTINUOUS
 10
188.093665
 20
251.159244
 11
188.455665
 21
251.369244
  0
LINE
  8
128
 62
7
  6
CONTINUOUS
 10
187.727665
 20
250.953244
 11
188.093665
 21
251.159244
  0
LINE
  8
128
 62
7
  6
CONTINUOUS
 10
187.359665
 20
250.751244
 11
187.727665
 21
250.953244
  0
LINE
  8
128
 62
7
  6
CONTINUOUS
 10
186.989665
 20
250.555244
 11
187.359665
 21
250.751244
  0
LINE
  8
128
 62
7
  6
CONTINUOUS
 10
186.615665
 20
250.365244
 11
186.989665
 21
250.555244
  0
LINE
  8
128
 62
7
  6
CONTINUOUS
 10
186.241665
 20
250.179244
 11
186.615665
 21
250.365244
  0
LINE
  8
128
 62
7
  6
CONTINUOUS
 10
185.861665
 20
249.999244
 11
186.241665
 21
250.179244
  0
LINE
  8
128
 62
7
  6
CONTINUOUS
 10
185.481665
 20
249.823244
 11
185.861665
 21
249.999244
  0
LINE
  8
128
 62
7
  6
CONTINUOUS
 10
185.097665
 20
249.651244
 11
185.481665
 21
249.823244
  0
LINE
  8
128
 62
7
  6
CONTINUOUS
 10
184.711665
 20
249.485244
 11
185.097665
 21
249.651244
  0
LINE
  8
128
 62
7
  6
CONTINUOUS
 10
184.323665
 20
249.323244
 11
184.711665
 21
249.485244
  0
LINE
  8
128
 62
7
  6
CONTINUOUS
 10
183.933665
 20
249.167244
 11
184.323665
 21
249.323244
  0
LINE
  8
128
 62
7
  6
CONTINUOUS
 10
183.539665
 20
249.017244
 11
183.933665
 21
249.167244
  0
LINE
  8
128
 62
7
  6
CONTINUOUS
 10
183.145665
 20
248.871244
 11
183.539665
 21
249.017244
  0
LINE
  8
128
 62
7
  6
CONTINUOUS
 10
182.749665
 20
248.729244
 11
183.145665
 21
248.871244
  0
LINE
  8
128
 62
7
  6
CONTINUOUS
 10
182.351665
 20
248.593244
 11
182.749665
 21
248.729244
  0
LINE
  8
128
 62
7
  6
CONTINUOUS
 10
181.951665
 20
248.463244
 11
182.351665
 21
248.593244
  0
LINE
  8
128
 62
7
  6
CONTINUOUS
 10
181.551665
 20
248.337244
 11
181.951665
 21
248.463244
  0
LINE
  8
128
 62
7
  6
CONTINUOUS
 10
181.133665
 20
248.213244
 11
181.551665
 21
248.337244
  0
LINE
  8
128
 62
7
  6
CONTINUOUS
 10
180.715665
 20
248.095244
 11
181.133665
 21
248.213244
  0
LINE
  8
128
 62
7
  6
CONTINUOUS
 10
180.295665
 20
247.981244
 11
180.715665
 21
248.095244
  0
LINE
  8
128
 62
7
  6
CONTINUOUS
 10
179.873665
 20
247.873244
 11
180.295665
 21
247.981244
  0
LINE
  8
128
 62
7
  6
CONTINUOUS
 10
179.451665
 20
247.771244
 11
179.873665
 21
247.873244
  0
LINE
  8
128
 62
7
  6
CONTINUOUS
 10
179.027665
 20
247.673244
 11
179.451665
 21
247.771244
  0
LINE
  8
128
 62
7
  6
CONTINUOUS
 10
178.601665
 20
247.581244
 11
179.027665
 21
247.673244
  0
LINE
  8
128
 62
7
  6
CONTINUOUS
 10
178.175665
 20
247.495244
 11
178.601665
 21
247.581244
  0
LINE
  8
128
 62
7
  6
CONTINUOUS
 10
177.747665
 20
247.415244
 11
178.175665
 21
247.495244
  0
LINE
  8
128
 62
7
  6
CONTINUOUS
 10
177.319665
 20
247.339244
 11
177.747665
 21
247.415244
  0
LINE
  8
128
 62
7
  6
CONTINUOUS
 10
176.891665
 20
247.269244
 11
177.319665
 21
247.339244
  0
LINE
  8
128
 62
7
  6
CONTINUOUS
 10
176.461665
 20
247.205244
 11
176.891665
 21
247.269244
  0
LINE
  8
128
 62
7
  6
CONTINUOUS
 10
176.031665
 20
247.147244
 11
176.461665
 21
247.205244
  0
LINE
  8
128
 62
7
  6
CONTINUOUS
 10
175.601665
 20
247.093244
 11
176.031665
 21
247.147244
  0
LINE
  8
128
 62
7
  6
CONTINUOUS
 10
175.169665
 20
247.045244
 11
175.601665
 21
247.093244
  0
LINE
  8
128
 62
7
  6
CONTINUOUS
 10
174.737665
 20
247.001244
 11
175.169665
 21
247.045244
  0
LINE
  8
128
 62
7
  6
CONTINUOUS
 10
174.305665
 20
246.965244
 11
174.737665
 21
247.001244
  0
LINE
  8
128
 62
7
  6
CONTINUOUS
 10
173.873665
 20
246.933244
 11
174.305665
 21
246.965244
  0
LINE
  8
128
 62
7
  6
CONTINUOUS
 10
173.439665
 20
246.907244
 11
173.873665
 21
246.933244
  0
LINE
  8
128
 62
7
  6
CONTINUOUS
 10
173.007665
 20
246.885244
 11
173.439665
 21
246.907244
  0
LINE
  8
128
 62
7
  6
CONTINUOUS
 10
172.575665
 20
246.871244
 11
173.007665
 21
246.885244
  0
LINE
  8
128
 62
7
  6
CONTINUOUS
 10
172.141665
 20
246.861244
 11
172.575665
 21
246.871244
  0
LINE
  8
128
 62
7
  6
CONTINUOUS
 10
171.709665
 20
246.855244
 11
172.141665
 21
246.861244
  0
LINE
  8
128
 62
7
  6
CONTINUOUS
 10
171.277665
 20
246.857244
 11
171.709665
 21
246.855244
  0
LINE
  8
128
 62
7
  6
CONTINUOUS
 10
170.845665
 20
246.863244
 11
171.277665
 21
246.857244
  0
LINE
  8
128
 62
7
  6
CONTINUOUS
 10
170.413665
 20
246.875244
 11
170.845665
 21
246.863244
  0
LINE
  8
128
 62
7
  6
CONTINUOUS
 10
169.981665
 20
246.893244
 11
170.413665
 21
246.875244
  0
LINE
  8
128
 62
7
  6
CONTINUOUS
 10
169.549665
 20
246.915244
 11
169.981665
 21
246.893244
  0
LINE
  8
128
 62
7
  6
CONTINUOUS
 10
169.117665
 20
246.943244
 11
169.549665
 21
246.915244
  0
LINE
  8
128
 62
7
  6
CONTINUOUS
 10
168.687665
 20
246.977244
 11
169.117665
 21
246.943244
  0
LINE
  8
128
 62
7
  6
CONTINUOUS
 10
168.253665
 20
247.015244
 11
168.687665
 21
246.977244
  0
LINE
  8
128
 62
7
  6
CONTINUOUS
 10
167.821665
 20
247.059244
 11
168.253665
 21
247.015244
  0
LINE
  8
128
 62
7
  6
CONTINUOUS
 10
167.389665
 20
247.109244
 11
167.821665
 21
247.059244
  0
LINE
  8
128
 62
7
  6
CONTINUOUS
 10
166.959665
 20
247.165244
 11
167.389665
 21
247.109244
  0
LINE
  8
128
 62
7
  6
CONTINUOUS
 10
166.529665
 20
247.227244
 11
166.959665
 21
247.165244
  0
LINE
  8
128
 62
7
  6
CONTINUOUS
 10
166.099665
 20
247.293244
 11
166.529665
 21
247.227244
  0
LINE
  8
128
 62
7
  6
CONTINUOUS
 10
165.671665
 20
247.363244
 11
166.099665
 21
247.293244
  0
LINE
  8
128
 62
7
  6
CONTINUOUS
 10
165.243665
 20
247.441244
 11
165.671665
 21
247.363244
  0
LINE
  8
128
 62
7
  6
CONTINUOUS
 10
164.817665
 20
247.523244
 11
165.243665
 21
247.441244
  0
LINE
  8
128
 62
7
  6
CONTINUOUS
 10
164.391665
 20
247.611244
 11
164.817665
 21
247.523244
  0
LINE
  8
128
 62
7
  6
CONTINUOUS
 10
163.965665
 20
247.705244
 11
164.391665
 21
247.611244
  0
LINE
  8
128
 62
7
  6
CONTINUOUS
 10
163.543665
 20
247.803244
 11
163.965665
 21
247.705244
  0
LINE
  8
128
 62
7
  6
CONTINUOUS
 10
163.121665
 20
247.909244
 11
163.543665
 21
247.803244
  0
LINE
  8
128
 62
7
  6
CONTINUOUS
 10
162.699665
 20
248.017244
 11
163.121665
 21
247.909244
  0
LINE
  8
128
 62
7
  6
CONTINUOUS
 10
162.279665
 20
248.133244
 11
162.699665
 21
248.017244
  0
LINE
  8
128
 62
7
  6
CONTINUOUS
 10
161.861665
 20
248.253244
 11
162.279665
 21
248.133244
  0
LINE
  8
128
 62
7
  6
CONTINUOUS
 10
161.445665
 20
248.379244
 11
161.861665
 21
248.253244
  0
LINE
  8
128
 62
7
  6
CONTINUOUS
 10
161.031665
 20
248.511244
 11
161.445665
 21
248.379244
  0
LINE
  8
128
 62
7
  6
CONTINUOUS
 10
160.619665
 20
248.649244
 11
161.031665
 21
248.511244
  0
LINE
  8
128
 62
7
  6
CONTINUOUS
 10
160.207665
 20
248.791244
 11
160.619665
 21
248.649244
  0
LINE
  8
128
 62
7
  6
CONTINUOUS
 10
159.817665
 20
248.933244
 11
160.207665
 21
248.791244
  0
LINE
  8
128
 62
7
  6
CONTINUOUS
 10
159.429665
 20
249.079244
 11
159.817665
 21
248.933244
  0
LINE
  8
128
 62
7
  6
CONTINUOUS
 10
159.043665
 20
249.229244
 11
159.429665
 21
249.079244
  0
LINE
  8
128
 62
7
  6
CONTINUOUS
 10
158.659665
 20
249.385244
 11
159.043665
 21
249.229244
  0
LINE
  8
128
 62
7
  6
CONTINUOUS
 10
158.277665
 20
249.547244
 11
158.659665
 21
249.385244
  0
LINE
  8
128
 62
7
  6
CONTINUOUS
 10
157.897665
 20
249.713244
 11
158.277665
 21
249.547244
  0
LINE
  8
128
 62
7
  6
CONTINUOUS
 10
157.519665
 20
249.883244
 11
157.897665
 21
249.713244
  0
LINE
  8
128
 62
7
  6
CONTINUOUS
 10
157.143665
 20
250.059244
 11
157.519665
 21
249.883244
  0
LINE
  8
128
 62
7
  6
CONTINUOUS
 10
156.771665
 20
250.239244
 11
157.143665
 21
250.059244
  0
LINE
  8
128
 62
7
  6
CONTINUOUS
 10
156.399665
 20
250.425244
 11
156.771665
 21
250.239244
  0
LINE
  8
128
 62
7
  6
CONTINUOUS
 10
156.133665
 20
250.563244
 11
156.399665
 21
250.425244
  0
LINE
  8
128
 62
7
  6
CONTINUOUS
 10
155.867665
 20
250.703244
 11
156.133665
 21
250.563244
  0
LINE
  8
128
 62
7
  6
CONTINUOUS
 10
155.601665
 20
250.845244
 11
155.867665
 21
250.703244
  0
LINE
  8
128
 62
7
  6
CONTINUOUS
 10
155.339665
 20
250.989244
 11
155.601665
 21
250.845244
  0
LINE
  8
128
 62
7
  6
CONTINUOUS
 10
155.077665
 20
251.137244
 11
155.339665
 21
250.989244
  0
LINE
  8
128
 62
7
  6
CONTINUOUS
 10
154.817665
 20
251.287244
 11
155.077665
 21
251.137244
  0
LINE
  8
128
 62
7
  6
CONTINUOUS
 10
154.559665
 20
251.439244
 11
154.817665
 21
251.287244
  0
LINE
  8
128
 62
7
  6
CONTINUOUS
 10
154.301665
 20
251.595244
 11
154.559665
 21
251.439244
  0
LINE
  8
128
 62
7
  6
CONTINUOUS
 10
154.045665
 20
251.753244
 11
154.301665
 21
251.595244
  0
LINE
  8
128
 62
7
  6
CONTINUOUS
 10
153.791665
 20
251.913244
 11
154.045665
 21
251.753244
  0
LINE
  8
128
 62
7
  6
CONTINUOUS
 10
153.589665
 20
252.043244
 11
153.791665
 21
251.913244
  0
LINE
  8
128
 62
7
  6
CONTINUOUS
 10
153.385665
 20
252.175244
 11
153.589665
 21
252.043244
  0
LINE
  8
128
 62
7
  6
CONTINUOUS
 10
153.183665
 20
252.309244
 11
153.385665
 21
252.175244
  0
LINE
  8
128
 62
7
  6
CONTINUOUS
 10
152.983665
 20
252.445244
 11
153.183665
 21
252.309244
  0
LINE
  8
128
 62
7
  6
CONTINUOUS
 10
152.783665
 20
252.583244
 11
152.983665
 21
252.445244
  0
LINE
  8
128
 62
7
  6
CONTINUOUS
 10
152.585665
 20
252.723244
 11
152.783665
 21
252.583244
  0
LINE
  8
128
 62
7
  6
CONTINUOUS
 10
152.389665
 20
252.863244
 11
152.585665
 21
252.723244
  0
LINE
  8
128
 62
7
  6
CONTINUOUS
 10
152.193665
 20
253.005244
 11
152.389665
 21
252.863244
  0
LINE
  8
128
 62
7
  6
CONTINUOUS
 10
151.997665
 20
253.149244
 11
152.193665
 21
253.005244
  0
LINE
  8
128
 62
7
  6
CONTINUOUS
 10
151.805665
 20
253.295244
 11
151.997665
 21
253.149244
  0
LINE
  8
128
 62
7
  6
CONTINUOUS
 10
151.559665
 20
253.483244
 11
151.805665
 21
253.295244
  0
LINE
  8
128
 62
7
  6
CONTINUOUS
 10
151.317665
 20
253.673244
 11
151.559665
 21
253.483244
  0
LINE
  8
128
 62
7
  6
CONTINUOUS
 10
151.075665
 20
253.865244
 11
151.317665
 21
253.673244
  0
LINE
  8
128
 62
7
  6
CONTINUOUS
 10
150.837665
 20
254.061244
 11
151.075665
 21
253.865244
  0
LINE
  8
128
 62
7
  6
CONTINUOUS
 10
150.599665
 20
254.261244
 11
150.837665
 21
254.061244
  0
LINE
  8
128
 62
7
  6
CONTINUOUS
 10
150.365665
 20
254.461244
 11
150.599665
 21
254.261244
  0
LINE
  8
128
 62
7
  6
CONTINUOUS
 10
150.133665
 20
254.665244
 11
150.365665
 21
254.461244
  0
LINE
  8
128
 62
7
  6
CONTINUOUS
 10
149.903665
 20
254.871244
 11
150.133665
 21
254.665244
  0
LINE
  8
128
 62
7
  6
CONTINUOUS
 10
149.675665
 20
255.079244
 11
149.903665
 21
254.871244
  0
LINE
  8
128
 62
7
  6
CONTINUOUS
 10
149.449665
 20
255.291244
 11
149.675665
 21
255.079244
  0
LINE
  8
128
 62
7
  6
CONTINUOUS
 10
149.137665
 20
255.591244
 11
149.449665
 21
255.291244
  0
LINE
  8
128
 62
7
  6
CONTINUOUS
 10
148.827665
 20
255.897244
 11
149.137665
 21
255.591244
  0
LINE
  8
128
 62
7
  6
CONTINUOUS
 10
148.525665
 20
256.207244
 11
148.827665
 21
255.897244
  0
LINE
  8
128
 62
7
  6
CONTINUOUS
 10
148.227665
 20
256.523244
 11
148.525665
 21
256.207244
  0
LINE
  8
128
 62
7
  6
CONTINUOUS
 10
147.933665
 20
256.843244
 11
148.227665
 21
256.523244
  0
LINE
  8
128
 62
7
  6
CONTINUOUS
 10
147.645665
 20
257.169244
 11
147.933665
 21
256.843244
  0
LINE
  8
128
 62
7
  6
CONTINUOUS
 10
147.363665
 20
257.497244
 11
147.645665
 21
257.169244
  0
LINE
  8
128
 62
7
  6
CONTINUOUS
 10
147.085665
 20
257.831244
 11
147.363665
 21
257.497244
  0
LINE
  8
128
 62
7
  6
CONTINUOUS
 10
146.813665
 20
258.171244
 11
147.085665
 21
257.831244
  0
LINE
  8
128
 62
7
  6
CONTINUOUS
 10
146.547665
 20
258.513244
 11
146.813665
 21
258.171244
  0
LINE
  8
128
 62
7
  6
CONTINUOUS
 10
146.407665
 20
258.697244
 11
146.547665
 21
258.513244
  0
LINE
  8
128
 62
7
  6
CONTINUOUS
 10
146.269665
 20
258.883244
 11
146.407665
 21
258.697244
  0
LINE
  8
128
 62
7
  6
CONTINUOUS
 10
146.133665
 20
259.069244
 11
146.269665
 21
258.883244
  0
LINE
  8
128
 62
7
  6
CONTINUOUS
 10
145.999665
 20
259.257244
 11
146.133665
 21
259.069244
  0
LINE
  8
128
 62
7
  6
CONTINUOUS
 10
145.865665
 20
259.447244
 11
145.999665
 21
259.257244
  0
LINE
  8
128
 62
7
  6
CONTINUOUS
 10
145.735665
 20
259.637244
 11
145.865665
 21
259.447244
  0
LINE
  8
128
 62
7
  6
CONTINUOUS
 10
145.605665
 20
259.829244
 11
145.735665
 21
259.637244
  0
LINE
  8
128
 62
7
  6
CONTINUOUS
 10
145.477665
 20
260.021244
 11
145.605665
 21
259.829244
  0
LINE
  8
128
 62
7
  6
CONTINUOUS
 10
145.351665
 20
260.215244
 11
145.477665
 21
260.021244
  0
LINE
  8
128
 62
7
  6
CONTINUOUS
 10
145.227665
 20
260.411244
 11
145.351665
 21
260.215244
  0
LINE
  8
128
 62
7
  6
CONTINUOUS
 10
145.149665
 20
260.537244
 11
145.227665
 21
260.411244
  0
LINE
  8
128
 62
7
  6
CONTINUOUS
 10
145.071665
 20
260.665244
 11
145.149665
 21
260.537244
  0
LINE
  8
128
 62
7
  6
CONTINUOUS
 10
144.993665
 20
260.791244
 11
145.071665
 21
260.665244
  0
LINE
  8
128
 62
7
  6
CONTINUOUS
 10
144.915665
 20
260.919244
 11
144.993665
 21
260.791244
  0
LINE
  8
128
 62
7
  6
CONTINUOUS
 10
144.839665
 20
261.047244
 11
144.915665
 21
260.919244
  0
LINE
  8
128
 62
7
  6
CONTINUOUS
 10
144.763665
 20
261.177244
 11
144.839665
 21
261.047244
  0
LINE
  8
128
 62
7
  6
CONTINUOUS
 10
144.689665
 20
261.305244
 11
144.763665
 21
261.177244
  0
LINE
  8
128
 62
7
  6
CONTINUOUS
 10
144.615665
 20
261.435244
 11
144.689665
 21
261.305244
  0
LINE
  8
128
 62
7
  6
CONTINUOUS
 10
144.543665
 20
261.565244
 11
144.615665
 21
261.435244
  0
LINE
  8
128
 62
7
  6
CONTINUOUS
 10
144.471665
 20
261.697244
 11
144.543665
 21
261.565244
  0
LINE
  8
128
 62
7
  6
CONTINUOUS
 10
144.373665
 20
261.877244
 11
144.471665
 21
261.697244
  0
LINE
  8
128
 62
7
  6
CONTINUOUS
 10
144.275665
 20
262.059244
 11
144.373665
 21
261.877244
  0
LINE
  8
128
 62
7
  6
CONTINUOUS
 10
144.181665
 20
262.241244
 11
144.275665
 21
262.059244
  0
LINE
  8
128
 62
7
  6
CONTINUOUS
 10
144.087665
 20
262.423244
 11
144.181665
 21
262.241244
  0
LINE
  8
128
 62
7
  6
CONTINUOUS
 10
143.995665
 20
262.607244
 11
144.087665
 21
262.423244
  0
LINE
  8
128
 62
7
  6
CONTINUOUS
 10
143.905665
 20
262.791244
 11
143.995665
 21
262.607244
  0
LINE
  8
128
 62
7
  6
CONTINUOUS
 10
143.817665
 20
262.977244
 11
143.905665
 21
262.791244
  0
LINE
  8
128
 62
7
  6
CONTINUOUS
 10
143.729665
 20
263.163244
 11
143.817665
 21
262.977244
  0
LINE
  8
128
 62
7
  6
CONTINUOUS
 10
143.643665
 20
263.349244
 11
143.729665
 21
263.163244
  0
LINE
  8
128
 62
7
  6
CONTINUOUS
 10
143.559665
 20
263.537244
 11
143.643665
 21
263.349244
  0
LINE
  8
128
 62
7
  6
CONTINUOUS
 10
143.423665
 20
263.851244
 11
143.559665
 21
263.537244
  0
LINE
  8
128
 62
7
  6
CONTINUOUS
 10
143.291665
 20
264.165244
 11
143.423665
 21
263.851244
  0
LINE
  8
128
 62
7
  6
CONTINUOUS
 10
143.165665
 20
264.483244
 11
143.291665
 21
264.165244
  0
LINE
  8
128
 62
7
  6
CONTINUOUS
 10
143.043665
 20
264.801244
 11
143.165665
 21
264.483244
  0
LINE
  8
128
 62
7
  6
CONTINUOUS
 10
142.925665
 20
265.123244
 11
143.043665
 21
264.801244
  0
LINE
  8
128
 62
7
  6
CONTINUOUS
 10
142.811665
 20
265.445244
 11
142.925665
 21
265.123244
  0
LINE
  8
128
 62
7
  6
CONTINUOUS
 10
142.703665
 20
265.769244
 11
142.811665
 21
265.445244
  0
LINE
  8
128
 62
7
  6
CONTINUOUS
 10
142.599665
 20
266.095244
 11
142.703665
 21
265.769244
  0
LINE
  8
128
 62
7
  6
CONTINUOUS
 10
142.499665
 20
266.421244
 11
142.599665
 21
266.095244
  0
LINE
  8
128
 62
7
  6
CONTINUOUS
 10
142.405665
 20
266.749244
 11
142.499665
 21
266.421244
  0
LINE
  8
128
 62
7
  6
CONTINUOUS
 10
142.369665
 20
266.879244
 11
142.405665
 21
266.749244
  0
LINE
  8
128
 62
7
  6
CONTINUOUS
 10
142.335665
 20
267.011244
 11
142.369665
 21
266.879244
  0
LINE
  8
128
 62
7
  6
CONTINUOUS
 10
142.301665
 20
267.141244
 11
142.335665
 21
267.011244
  0
LINE
  8
128
 62
7
  6
CONTINUOUS
 10
142.267665
 20
267.273244
 11
142.301665
 21
267.141244
  0
LINE
  8
128
 62
7
  6
CONTINUOUS
 10
142.233665
 20
267.403244
 11
142.267665
 21
267.273244
  0
LINE
  8
128
 62
7
  6
CONTINUOUS
 10
142.201665
 20
267.535244
 11
142.233665
 21
267.403244
  0
LINE
  8
128
 62
7
  6
CONTINUOUS
 10
142.171665
 20
267.667244
 11
142.201665
 21
267.535244
  0
LINE
  8
128
 62
7
  6
CONTINUOUS
 10
142.139665
 20
267.799244
 11
142.171665
 21
267.667244
  0
LINE
  8
128
 62
7
  6
CONTINUOUS
 10
142.109665
 20
267.931244
 11
142.139665
 21
267.799244
  0
LINE
  8
128
 62
7
  6
CONTINUOUS
 10
142.081665
 20
268.063244
 11
142.109665
 21
267.931244
  0
LINE
  8
128
 62
7
  6
CONTINUOUS
 10
142.047665
 20
268.225244
 11
142.081665
 21
268.063244
  0
LINE
  8
128
 62
7
  6
CONTINUOUS
 10
142.013665
 20
268.385244
 11
142.047665
 21
268.225244
  0
LINE
  8
128
 62
7
  6
CONTINUOUS
 10
141.981665
 20
268.547244
 11
142.013665
 21
268.385244
  0
LINE
  8
128
 62
7
  6
CONTINUOUS
 10
141.951665
 20
268.709244
 11
141.981665
 21
268.547244
  0
LINE
  8
128
 62
7
  6
CONTINUOUS
 10
141.921665
 20
268.871244
 11
141.951665
 21
268.709244
  0
LINE
  8
128
 62
7
  6
CONTINUOUS
 10
141.893665
 20
269.033244
 11
141.921665
 21
268.871244
  0
LINE
  8
128
 62
7
  6
CONTINUOUS
 10
141.865665
 20
269.195244
 11
141.893665
 21
269.033244
  0
LINE
  8
128
 62
7
  6
CONTINUOUS
 10
141.839665
 20
269.359244
 11
141.865665
 21
269.195244
  0
LINE
  8
128
 62
7
  6
CONTINUOUS
 10
141.815665
 20
269.521244
 11
141.839665
 21
269.359244
  0
LINE
  8
128
 62
7
  6
CONTINUOUS
 10
141.791665
 20
269.683244
 11
141.815665
 21
269.521244
  0
LINE
  8
128
 62
7
  6
CONTINUOUS
 10
141.755665
 20
269.955244
 11
141.791665
 21
269.683244
  0
LINE
  8
128
 62
7
  6
CONTINUOUS
 10
141.721665
 20
270.225244
 11
141.755665
 21
269.955244
  0
LINE
  8
128
 62
7
  6
CONTINUOUS
 10
141.691665
 20
270.495244
 11
141.721665
 21
270.225244
  0
LINE
  8
128
 62
7
  6
CONTINUOUS
 10
141.663665
 20
270.767244
 11
141.691665
 21
270.495244
  0
LINE
  8
128
 62
7
  6
CONTINUOUS
 10
141.641665
 20
271.039244
 11
141.663665
 21
270.767244
  0
LINE
  8
128
 62
7
  6
CONTINUOUS
 10
141.621665
 20
271.311244
 11
141.641665
 21
271.039244
  0
LINE
  8
128
 62
7
  6
CONTINUOUS
 10
141.603665
 20
271.583244
 11
141.621665
 21
271.311244
  0
LINE
  8
128
 62
7
  6
CONTINUOUS
 10
141.589665
 20
271.855244
 11
141.603665
 21
271.583244
  0
LINE
  8
128
 62
7
  6
CONTINUOUS
 10
141.579665
 20
272.129244
 11
141.589665
 21
271.855244
  0
LINE
  8
128
 62
7
  6
CONTINUOUS
 10
141.571665
 20
272.401244
 11
141.579665
 21
272.129244
  0
LINE
  8
128
 62
7
  6
CONTINUOUS
 10
201.563665
 20
272.401244
 11
201.563665
 21
245.361244
  0
LINE
  8
128
 62
7
  6
CONTINUOUS
 10
145.573665
 20
275.061244
 11
145.571665
 21
275.229244
  0
LINE
  8
128
 62
7
  6
CONTINUOUS
 10
145.579665
 20
274.891244
 11
145.573665
 21
275.061244
  0
LINE
  8
128
 62
7
  6
CONTINUOUS
 10
145.583665
 20
274.721244
 11
145.579665
 21
274.891244
  0
LINE
  8
128
 62
7
  6
CONTINUOUS
 10
145.591665
 20
274.553244
 11
145.583665
 21
274.721244
  0
LINE
  8
128
 62
7
  6
CONTINUOUS
 10
145.599665
 20
274.383244
 11
145.591665
 21
274.553244
  0
LINE
  8
128
 62
7
  6
CONTINUOUS
 10
145.607665
 20
274.215244
 11
145.599665
 21
274.383244
  0
LINE
  8
128
 62
7
  6
CONTINUOUS
 10
145.617665
 20
274.045244
 11
145.607665
 21
274.215244
  0
LINE
  8
128
 62
7
  6
CONTINUOUS
 10
145.627665
 20
273.877244
 11
145.617665
 21
274.045244
  0
LINE
  8
128
 62
7
  6
CONTINUOUS
 10
145.641665
 20
273.707244
 11
145.627665
 21
273.877244
  0
LINE
  8
128
 62
7
  6
CONTINUOUS
 10
145.653665
 20
273.539244
 11
145.641665
 21
273.707244
  0
LINE
  8
128
 62
7
  6
CONTINUOUS
 10
145.699665
 20
273.039244
 11
145.653665
 21
273.539244
  0
LINE
  8
128
 62
7
  6
CONTINUOUS
 10
145.755665
 20
272.539244
 11
145.699665
 21
273.039244
  0
LINE
  8
128
 62
7
  6
CONTINUOUS
 10
145.819665
 20
272.041244
 11
145.755665
 21
272.539244
  0
LINE
  8
128
 62
7
  6
CONTINUOUS
 10
145.895665
 20
271.545244
 11
145.819665
 21
272.041244
  0
LINE
  8
128
 62
7
  6
CONTINUOUS
 10
145.979665
 20
271.049244
 11
145.895665
 21
271.545244
  0
LINE
  8
128
 62
7
  6
CONTINUOUS
 10
146.073665
 20
270.555244
 11
145.979665
 21
271.049244
  0
LINE
  8
128
 62
7
  6
CONTINUOUS
 10
146.177665
 20
270.063244
 11
146.073665
 21
270.555244
  0
LINE
  8
128
 62
7
  6
CONTINUOUS
 10
146.291665
 20
269.573244
 11
146.177665
 21
270.063244
  0
LINE
  8
128
 62
7
  6
CONTINUOUS
 10
146.413665
 20
269.085244
 11
146.291665
 21
269.573244
  0
LINE
  8
128
 62
7
  6
CONTINUOUS
 10
146.545665
 20
268.601244
 11
146.413665
 21
269.085244
  0
LINE
  8
128
 62
7
  6
CONTINUOUS
 10
146.689665
 20
268.113244
 11
146.545665
 21
268.601244
  0
LINE
  8
128
 62
7
  6
CONTINUOUS
 10
146.841665
 20
267.629244
 11
146.689665
 21
268.113244
  0
LINE
  8
128
 62
7
  6
CONTINUOUS
 10
147.003665
 20
267.149244
 11
146.841665
 21
267.629244
  0
LINE
  8
128
 62
7
  6
CONTINUOUS
 10
147.175665
 20
266.671244
 11
147.003665
 21
267.149244
  0
LINE
  8
128
 62
7
  6
CONTINUOUS
 10
147.357665
 20
266.197244
 11
147.175665
 21
266.671244
  0
LINE
  8
128
 62
7
  6
CONTINUOUS
 10
147.547665
 20
265.727244
 11
147.357665
 21
266.197244
  0
LINE
  8
128
 62
7
  6
CONTINUOUS
 10
147.745665
 20
265.261244
 11
147.547665
 21
265.727244
  0
LINE
  8
128
 62
7
  6
CONTINUOUS
 10
147.953665
 20
264.799244
 11
147.745665
 21
265.261244
  0
LINE
  8
128
 62
7
  6
CONTINUOUS
 10
148.171665
 20
264.339244
 11
147.953665
 21
264.799244
  0
LINE
  8
128
 62
7
  6
CONTINUOUS
 10
148.397665
 20
263.885244
 11
148.171665
 21
264.339244
  0
LINE
  8
128
 62
7
  6
CONTINUOUS
 10
148.629665
 20
263.439244
 11
148.397665
 21
263.885244
  0
LINE
  8
128
 62
7
  6
CONTINUOUS
 10
148.869665
 20
262.999244
 11
148.629665
 21
263.439244
  0
LINE
  8
128
 62
7
  6
CONTINUOUS
 10
149.119665
 20
262.561244
 11
148.869665
 21
262.999244
  0
LINE
  8
128
 62
7
  6
CONTINUOUS
 10
149.377665
 20
262.131244
 11
149.119665
 21
262.561244
  0
LINE
  8
128
 62
7
  6
CONTINUOUS
 10
149.643665
 20
261.703244
 11
149.377665
 21
262.131244
  0
LINE
  8
128
 62
7
  6
CONTINUOUS
 10
149.917665
 20
261.281244
 11
149.643665
 21
261.703244
  0
LINE
  8
128
 62
7
  6
CONTINUOUS
 10
150.199665
 20
260.865244
 11
149.917665
 21
261.281244
  0
LINE
  8
128
 62
7
  6
CONTINUOUS
 10
150.489665
 20
260.455244
 11
150.199665
 21
260.865244
  0
LINE
  8
128
 62
7
  6
CONTINUOUS
 10
150.787665
 20
260.051244
 11
150.489665
 21
260.455244
  0
LINE
  8
128
 62
7
  6
CONTINUOUS
 10
151.093665
 20
259.653244
 11
150.787665
 21
260.051244
  0
LINE
  8
128
 62
7
  6
CONTINUOUS
 10
151.409665
 20
259.257244
 11
151.093665
 21
259.653244
  0
LINE
  8
128
 62
7
  6
CONTINUOUS
 10
151.733665
 20
258.867244
 11
151.409665
 21
259.257244
  0
LINE
  8
128
 62
7
  6
CONTINUOUS
 10
152.065665
 20
258.483244
 11
151.733665
 21
258.867244
  0
LINE
  8
128
 62
7
  6
CONTINUOUS
 10
152.405665
 20
258.107244
 11
152.065665
 21
258.483244
  0
LINE
  8
128
 62
7
  6
CONTINUOUS
 10
152.751665
 20
257.737244
 11
152.405665
 21
258.107244
  0
LINE
  8
128
 62
7
  6
CONTINUOUS
 10
153.105665
 20
257.373244
 11
152.751665
 21
257.737244
  0
LINE
  8
128
 62
7
  6
CONTINUOUS
 10
153.467665
 20
257.017244
 11
153.105665
 21
257.373244
  0
LINE
  8
128
 62
7
  6
CONTINUOUS
 10
153.833665
 20
256.667244
 11
153.467665
 21
257.017244
  0
LINE
  8
128
 62
7
  6
CONTINUOUS
 10
154.207665
 20
256.325244
 11
153.833665
 21
256.667244
  0
LINE
  8
128
 62
7
  6
CONTINUOUS
 10
154.589665
 20
255.991244
 11
154.207665
 21
256.325244
  0
LINE
  8
128
 62
7
  6
CONTINUOUS
 10
154.973665
 20
255.665244
 11
154.589665
 21
255.991244
  0
LINE
  8
128
 62
7
  6
CONTINUOUS
 10
155.363665
 20
255.349244
 11
154.973665
 21
255.665244
  0
LINE
  8
128
 62
7
  6
CONTINUOUS
 10
155.759665
 20
255.039244
 11
155.363665
 21
255.349244
  0
LINE
  8
128
 62
7
  6
CONTINUOUS
 10
156.161665
 20
254.737244
 11
155.759665
 21
255.039244
  0
LINE
  8
128
 62
7
  6
CONTINUOUS
 10
156.569665
 20
254.443244
 11
156.161665
 21
254.737244
  0
LINE
  8
128
 62
7
  6
CONTINUOUS
 10
156.981665
 20
254.157244
 11
156.569665
 21
254.443244
  0
LINE
  8
128
 62
7
  6
CONTINUOUS
 10
157.401665
 20
253.879244
 11
156.981665
 21
254.157244
  0
LINE
  8
128
 62
7
  6
CONTINUOUS
 10
157.825665
 20
253.609244
 11
157.401665
 21
253.879244
  0
LINE
  8
128
 62
7
  6
CONTINUOUS
 10
158.253665
 20
253.347244
 11
157.825665
 21
253.609244
  0
LINE
  8
128
 62
7
  6
CONTINUOUS
 10
158.687665
 20
253.093244
 11
158.253665
 21
253.347244
  0
LINE
  8
128
 62
7
  6
CONTINUOUS
 10
159.129665
 20
252.847244
 11
158.687665
 21
253.093244
  0
LINE
  8
128
 62
7
  6
CONTINUOUS
 10
159.575665
 20
252.611244
 11
159.129665
 21
252.847244
  0
LINE
  8
128
 62
7
  6
CONTINUOUS
 10
160.027665
 20
252.381244
 11
159.575665
 21
252.611244
  0
LINE
  8
128
 62
7
  6
CONTINUOUS
 10
160.483665
 20
252.163244
 11
160.027665
 21
252.381244
  0
LINE
  8
128
 62
7
  6
CONTINUOUS
 10
160.941665
 20
251.951244
 11
160.483665
 21
252.163244
  0
LINE
  8
128
 62
7
  6
CONTINUOUS
 10
161.405665
 20
251.749244
 11
160.941665
 21
251.951244
  0
LINE
  8
128
 62
7
  6
CONTINUOUS
 10
161.873665
 20
251.557244
 11
161.405665
 21
251.749244
  0
LINE
  8
128
 62
7
  6
CONTINUOUS
 10
162.345665
 20
251.373244
 11
161.873665
 21
251.557244
  0
LINE
  8
128
 62
7
  6
CONTINUOUS
 10
162.819665
 20
251.199244
 11
162.345665
 21
251.373244
  0
LINE
  8
128
 62
7
  6
CONTINUOUS
 10
163.297665
 20
251.035244
 11
162.819665
 21
251.199244
  0
LINE
  8
128
 62
7
  6
CONTINUOUS
 10
163.777665
 20
250.879244
 11
163.297665
 21
251.035244
  0
LINE
  8
128
 62
7
  6
CONTINUOUS
 10
164.261665
 20
250.731244
 11
163.777665
 21
250.879244
  0
LINE
  8
128
 62
7
  6
CONTINUOUS
 10
164.747665
 20
250.595244
 11
164.261665
 21
250.731244
  0
LINE
  8
128
 62
7
  6
CONTINUOUS
 10
165.237665
 20
250.467244
 11
164.747665
 21
250.595244
  0
LINE
  8
128
 62
7
  6
CONTINUOUS
 10
165.729665
 20
250.349244
 11
165.237665
 21
250.467244
  0
LINE
  8
128
 62
7
  6
CONTINUOUS
 10
166.223665
 20
250.241244
 11
165.729665
 21
250.349244
  0
LINE
  8
128
 62
7
  6
CONTINUOUS
 10
166.717665
 20
250.141244
 11
166.223665
 21
250.241244
  0
LINE
  8
128
 62
7
  6
CONTINUOUS
 10
167.215665
 20
250.051244
 11
166.717665
 21
250.141244
  0
LINE
  8
128
 62
7
  6
CONTINUOUS
 10
167.715665
 20
249.971244
 11
167.215665
 21
250.051244
  0
LINE
  8
128
 62
7
  6
CONTINUOUS
 10
168.215665
 20
249.901244
 11
167.715665
 21
249.971244
  0
LINE
  8
128
 62
7
  6
CONTINUOUS
 10
168.715665
 20
249.841244
 11
168.215665
 21
249.901244
  0
LINE
  8
128
 62
7
  6
CONTINUOUS
 10
169.217665
 20
249.791244
 11
168.715665
 21
249.841244
  0
LINE
  8
128
 62
7
  6
CONTINUOUS
 10
169.719665
 20
249.751244
 11
169.217665
 21
249.791244
  0
LINE
  8
128
 62
7
  6
CONTINUOUS
 10
170.223665
 20
249.719244
 11
169.719665
 21
249.751244
  0
LINE
  8
128
 62
7
  6
CONTINUOUS
 10
170.727665
 20
249.697244
 11
170.223665
 21
249.719244
  0
LINE
  8
128
 62
7
  6
CONTINUOUS
 10
171.231665
 20
249.687244
 11
170.727665
 21
249.697244
  0
LINE
  8
128
 62
7
  6
CONTINUOUS
 10
171.735665
 20
249.685244
 11
171.231665
 21
249.687244
  0
LINE
  8
128
 62
7
  6
CONTINUOUS
 10
172.239665
 20
249.693244
 11
171.735665
 21
249.685244
  0
LINE
  8
128
 62
7
  6
CONTINUOUS
 10
172.743665
 20
249.711244
 11
172.239665
 21
249.693244
  0
LINE
  8
128
 62
7
  6
CONTINUOUS
 10
173.245665
 20
249.739244
 11
172.743665
 21
249.711244
  0
LINE
  8
128
 62
7
  6
CONTINUOUS
 10
173.707665
 20
249.773244
 11
173.245665
 21
249.739244
  0
LINE
  8
128
 62
7
  6
CONTINUOUS
 10
174.169665
 20
249.815244
 11
173.707665
 21
249.773244
  0
LINE
  8
128
 62
7
  6
CONTINUOUS
 10
174.631665
 20
249.865244
 11
174.169665
 21
249.815244
  0
LINE
  8
128
 62
7
  6
CONTINUOUS
 10
175.089665
 20
249.925244
 11
174.631665
 21
249.865244
  0
LINE
  8
128
 62
7
  6
CONTINUOUS
 10
175.549665
 20
249.991244
 11
175.089665
 21
249.925244
  0
LINE
  8
128
 62
7
  6
CONTINUOUS
 10
176.005665
 20
250.067244
 11
175.549665
 21
249.991244
  0
LINE
  8
128
 62
7
  6
CONTINUOUS
 10
176.461665
 20
250.149244
 11
176.005665
 21
250.067244
  0
LINE
  8
128
 62
7
  6
CONTINUOUS
 10
176.915665
 20
250.241244
 11
176.461665
 21
250.149244
  0
LINE
  8
128
 62
7
  6
CONTINUOUS
 10
177.369665
 20
250.341244
 11
176.915665
 21
250.241244
  0
LINE
  8
128
 62
7
  6
CONTINUOUS
 10
177.819665
 20
250.447244
 11
177.369665
 21
250.341244
  0
LINE
  8
128
 62
7
  6
CONTINUOUS
 10
178.185665
 20
250.541244
 11
177.819665
 21
250.447244
  0
LINE
  8
128
 62
7
  6
CONTINUOUS
 10
178.551665
 20
250.641244
 11
178.185665
 21
250.541244
  0
LINE
  8
128
 62
7
  6
CONTINUOUS
 10
178.913665
 20
250.745244
 11
178.551665
 21
250.641244
  0
LINE
  8
128
 62
7
  6
CONTINUOUS
 10
179.275665
 20
250.855244
 11
178.913665
 21
250.745244
  0
LINE
  8
128
 62
7
  6
CONTINUOUS
 10
179.637665
 20
250.969244
 11
179.275665
 21
250.855244
  0
LINE
  8
128
 62
7
  6
CONTINUOUS
 10
179.995665
 20
251.089244
 11
179.637665
 21
250.969244
  0
LINE
  8
128
 62
7
  6
CONTINUOUS
 10
180.351665
 20
251.213244
 11
179.995665
 21
251.089244
  0
LINE
  8
128
 62
7
  6
CONTINUOUS
 10
180.707665
 20
251.343244
 11
180.351665
 21
251.213244
  0
LINE
  8
128
 62
7
  6
CONTINUOUS
 10
181.061665
 20
251.479244
 11
180.707665
 21
251.343244
  0
LINE
  8
128
 62
7
  6
CONTINUOUS
 10
181.411665
 20
251.619244
 11
181.061665
 21
251.479244
  0
LINE
  8
128
 62
7
  6
CONTINUOUS
 10
181.877665
 20
251.815244
 11
181.411665
 21
251.619244
  0
LINE
  8
128
 62
7
  6
CONTINUOUS
 10
182.339665
 20
252.019244
 11
181.877665
 21
251.815244
  0
LINE
  8
128
 62
7
  6
CONTINUOUS
 10
182.797665
 20
252.233244
 11
182.339665
 21
252.019244
  0
LINE
  8
128
 62
7
  6
CONTINUOUS
 10
183.249665
 20
252.453244
 11
182.797665
 21
252.233244
  0
LINE
  8
128
 62
7
  6
CONTINUOUS
 10
183.699665
 20
252.685244
 11
183.249665
 21
252.453244
  0
LINE
  8
128
 62
7
  6
CONTINUOUS
 10
184.143665
 20
252.923244
 11
183.699665
 21
252.685244
  0
LINE
  8
128
 62
7
  6
CONTINUOUS
 10
184.583665
 20
253.171244
 11
184.143665
 21
252.923244
  0
LINE
  8
128
 62
7
  6
CONTINUOUS
 10
185.017665
 20
253.429244
 11
184.583665
 21
253.171244
  0
LINE
  8
128
 62
7
  6
CONTINUOUS
 10
185.447665
 20
253.693244
 11
185.017665
 21
253.429244
  0
LINE
  8
128
 62
7
  6
CONTINUOUS
 10
185.871665
 20
253.967244
 11
185.447665
 21
253.693244
  0
LINE
  8
128
 62
7
  6
CONTINUOUS
 10
186.291665
 20
254.249244
 11
185.871665
 21
253.967244
  0
LINE
  8
128
 62
7
  6
CONTINUOUS
 10
186.703665
 20
254.539244
 11
186.291665
 21
254.249244
  0
LINE
  8
128
 62
7
  6
CONTINUOUS
 10
187.111665
 20
254.837244
 11
186.703665
 21
254.539244
  0
LINE
  8
128
 62
7
  6
CONTINUOUS
 10
187.513665
 20
255.143244
 11
187.111665
 21
254.837244
  0
LINE
  8
128
 62
7
  6
CONTINUOUS
 10
187.907665
 20
255.457244
 11
187.513665
 21
255.143244
  0
LINE
  8
128
 62
7
  6
CONTINUOUS
 10
188.297665
 20
255.779244
 11
187.907665
 21
255.457244
  0
LINE
  8
128
 62
7
  6
CONTINUOUS
 10
188.679665
 20
256.109244
 11
188.297665
 21
255.779244
  0
LINE
  8
128
 62
7
  6
CONTINUOUS
 10
189.057665
 20
256.445244
 11
188.679665
 21
256.109244
  0
LINE
  8
128
 62
7
  6
CONTINUOUS
 10
189.427665
 20
256.789244
 11
189.057665
 21
256.445244
  0
LINE
  8
128
 62
7
  6
CONTINUOUS
 10
189.791665
 20
257.139244
 11
189.427665
 21
256.789244
  0
LINE
  8
128
 62
7
  6
CONTINUOUS
 10
190.147665
 20
257.497244
 11
189.791665
 21
257.139244
  0
LINE
  8
128
 62
7
  6
CONTINUOUS
 10
190.497665
 20
257.861244
 11
190.147665
 21
257.497244
  0
LINE
  8
128
 62
7
  6
CONTINUOUS
 10
190.839665
 20
258.231244
 11
190.497665
 21
257.861244
  0
LINE
  8
128
 62
7
  6
CONTINUOUS
 10
191.175665
 20
258.609244
 11
190.839665
 21
258.231244
  0
LINE
  8
128
 62
7
  6
CONTINUOUS
 10
191.503665
 20
258.991244
 11
191.175665
 21
258.609244
  0
LINE
  8
128
 62
7
  6
CONTINUOUS
 10
191.825665
 20
259.381244
 11
191.503665
 21
258.991244
  0
LINE
  8
128
 62
7
  6
CONTINUOUS
 10
192.137665
 20
259.777244
 11
191.825665
 21
259.381244
  0
LINE
  8
128
 62
7
  6
CONTINUOUS
 10
192.443665
 20
260.179244
 11
192.137665
 21
259.777244
  0
LINE
  8
128
 62
7
  6
CONTINUOUS
 10
192.741665
 20
260.587244
 11
192.443665
 21
260.179244
  0
LINE
  8
128
 62
7
  6
CONTINUOUS
 10
193.029665
 20
261.001244
 11
192.741665
 21
260.587244
  0
LINE
  8
128
 62
7
  6
CONTINUOUS
 10
193.311665
 20
261.421244
 11
193.029665
 21
261.001244
  0
LINE
  8
128
 62
7
  6
CONTINUOUS
 10
193.583665
 20
261.845244
 11
193.311665
 21
261.421244
  0
LINE
  8
128
 62
7
  6
CONTINUOUS
 10
193.847665
 20
262.275244
 11
193.583665
 21
261.845244
  0
LINE
  8
128
 62
7
  6
CONTINUOUS
 10
194.103665
 20
262.711244
 11
193.847665
 21
262.275244
  0
LINE
  8
128
 62
7
  6
CONTINUOUS
 10
194.349665
 20
263.151244
 11
194.103665
 21
262.711244
  0
LINE
  8
128
 62
7
  6
CONTINUOUS
 10
194.587665
 20
263.597244
 11
194.349665
 21
263.151244
  0
LINE
  8
128
 62
7
  6
CONTINUOUS
 10
194.817665
 20
264.045244
 11
194.587665
 21
263.597244
  0
LINE
  8
128
 62
7
  6
CONTINUOUS
 10
195.039665
 20
264.499244
 11
194.817665
 21
264.045244
  0
LINE
  8
128
 62
7
  6
CONTINUOUS
 10
195.251665
 20
264.957244
 11
195.039665
 21
264.499244
  0
LINE
  8
128
 62
7
  6
CONTINUOUS
 10
195.455665
 20
265.419244
 11
195.251665
 21
264.957244
  0
LINE
  8
128
 62
7
  6
CONTINUOUS
 10
195.651665
 20
265.887244
 11
195.455665
 21
265.419244
  0
LINE
  8
128
 62
7
  6
CONTINUOUS
 10
195.837665
 20
266.355244
 11
195.651665
 21
265.887244
  0
LINE
  8
128
 62
7
  6
CONTINUOUS
 10
196.013665
 20
266.829244
 11
195.837665
 21
266.355244
  0
LINE
  8
128
 62
7
  6
CONTINUOUS
 10
196.181665
 20
267.305244
 11
196.013665
 21
266.829244
  0
LINE
  8
128
 62
7
  6
CONTINUOUS
 10
196.341665
 20
267.785244
 11
196.181665
 21
267.305244
  0
LINE
  8
128
 62
7
  6
CONTINUOUS
 10
196.491665
 20
268.267244
 11
196.341665
 21
267.785244
  0
LINE
  8
128
 62
7
  6
CONTINUOUS
 10
196.631665
 20
268.753244
 11
196.491665
 21
268.267244
  0
LINE
  8
128
 62
7
  6
CONTINUOUS
 10
196.761665
 20
269.241244
 11
196.631665
 21
268.753244
  0
LINE
  8
128
 62
7
  6
CONTINUOUS
 10
196.881665
 20
269.731244
 11
196.761665
 21
269.241244
  0
LINE
  8
128
 62
7
  6
CONTINUOUS
 10
196.993665
 20
270.223244
 11
196.881665
 21
269.731244
  0
LINE
  8
128
 62
7
  6
CONTINUOUS
 10
197.093665
 20
270.719244
 11
196.993665
 21
270.223244
  0
LINE
  8
128
 62
7
  6
CONTINUOUS
 10
197.185665
 20
271.215244
 11
197.093665
 21
270.719244
  0
LINE
  8
128
 62
7
  6
CONTINUOUS
 10
197.265665
 20
271.713244
 11
197.185665
 21
271.215244
  0
LINE
  8
128
 62
7
  6
CONTINUOUS
 10
197.337665
 20
272.213244
 11
197.265665
 21
271.713244
  0
LINE
  8
128
 62
7
  6
CONTINUOUS
 10
197.399665
 20
272.713244
 11
197.337665
 21
272.213244
  0
LINE
  8
128
 62
7
  6
CONTINUOUS
 10
197.451665
 20
273.215244
 11
197.399665
 21
272.713244
  0
LINE
  8
128
 62
7
  6
CONTINUOUS
 10
197.493665
 20
273.719244
 11
197.451665
 21
273.215244
  0
LINE
  8
128
 62
7
  6
CONTINUOUS
 10
197.527665
 20
274.221244
 11
197.493665
 21
273.719244
  0
LINE
  8
128
 62
7
  6
CONTINUOUS
 10
197.549665
 20
274.725244
 11
197.527665
 21
274.221244
  0
LINE
  8
128
 62
7
  6
CONTINUOUS
 10
197.563665
 20
275.229244
 11
197.549665
 21
274.725244
  0
LINE
  8
128
 62
7
  6
CONTINUOUS
 10
141.567665
 20
233.013244
 11
142.067665
 21
232.513244
  0
LINE
  8
128
 62
7
  6
CONTINUOUS
 10
201.067665
 20
232.513244
 11
201.567665
 21
233.013244
  0
LINE
  8
128
 62
7
  6
CONTINUOUS
 10
145.177665
 20
297.725244
 11
145.571665
 21
275.229244
  0
LINE
  8
128
 62
7
  6
CONTINUOUS
 10
145.209665
 20
298.469244
 11
145.177665
 21
297.725244
  0
LINE
  8
128
 62
7
  6
CONTINUOUS
 10
145.333665
 20
299.153244
 11
145.209665
 21
298.469244
  0
LINE
  8
128
 62
7
  6
CONTINUOUS
 10
145.545665
 20
299.777244
 11
145.333665
 21
299.153244
  0
LINE
  8
128
 62
7
  6
CONTINUOUS
 10
145.847665
 20
300.331244
 11
145.545665
 21
299.777244
  0
LINE
  8
128
 62
7
  6
CONTINUOUS
 10
146.235665
 20
300.813244
 11
145.847665
 21
300.331244
  0
LINE
  8
128
 62
7
  6
CONTINUOUS
 10
150.181665
 20
304.903244
 11
146.235665
 21
300.813244
  0
ARC
  8
128
 62
7
  6
CONTINUOUS
 10
157.199665
 20
298.131244
 40
9.752000
 50
89.997282
 51
136.021054
  0
LINE
  8
128
 62
7
  6
CONTINUOUS
 10
185.933665
 20
307.883244
 11
157.199665
 21
307.883244
  0
ARC
  8
128
 62
7
  6
CONTINUOUS
 10
185.935665
 20
298.131244
 40
9.752000
 50
43.978946
 51
90.002718
  0
LINE
  8
128
 62
7
  6
CONTINUOUS
 10
196.899665
 20
300.813244
 11
192.951665
 21
304.903244
  0
LINE
  8
128
 62
7
  6
CONTINUOUS
 10
197.287665
 20
300.331244
 11
196.899665
 21
300.813244
  0
LINE
  8
128
 62
7
  6
CONTINUOUS
 10
197.587665
 20
299.777244
 11
197.287665
 21
300.331244
  0
LINE
  8
128
 62
7
  6
CONTINUOUS
 10
197.801665
 20
299.153244
 11
197.587665
 21
299.777244
  0
LINE
  8
128
 62
7
  6
CONTINUOUS
 10
197.923665
 20
298.469244
 11
197.801665
 21
299.153244
  0
LINE
  8
128
 62
7
  6
CONTINUOUS
 10
197.955665
 20
297.725244
 11
197.923665
 21
298.469244
  0
LINE
  8
128
 62
7
  6
CONTINUOUS
 10
197.563665
 20
275.229244
 11
197.955665
 21
297.725244
  0
LINE
  8
128
 62
7
  6
CONTINUOUS
 10
164.807665
 20
253.943244
 11
164.675665
 21
253.961244
  0
LINE
  8
128
 62
7
  6
CONTINUOUS
 10
164.807665
 20
251.179244
 11
164.807665
 21
253.943244
  0
ARC
  8
128
 62
7
  6
CONTINUOUS
 10
171.567665
 20
278.865244
 40
28.500000
 50
-103.721250
 51
-76.279597
  0
LINE
  8
128
 62
7
  6
CONTINUOUS
 10
178.327665
 20
253.943244
 11
178.327665
 21
251.179244
  0
LINE
  8
128
 62
7
  6
CONTINUOUS
 10
178.457665
 20
253.961244
 11
178.327665
 21
253.943244
  0
ARC
  8
128
 62
7
  6
CONTINUOUS
 10
171.567665
 20
278.513244
 40
25.500000
 50
-74.322578
 51
74.321378
  0
LINE
  8
128
 62
7
  6
CONTINUOUS
 10
178.327665
 20
303.081244
 11
178.457665
 21
303.063244
  0
LINE
  8
128
 62
7
  6
CONTINUOUS
 10
178.327665
 20
306.553244
 11
178.327665
 21
303.081244
  0
ARC
  8
128
 62
7
  6
CONTINUOUS
 10
171.567665
 20
278.865244
 40
28.500000
 50
76.279597
 51
77.208886
  0
LINE
  8
128
 62
7
  6
CONTINUOUS
 10
177.727665
 20
306.689244
 11
177.877665
 21
306.659244
  0
LINE
  8
128
 62
7
  6
CONTINUOUS
 10
177.577665
 20
306.717244
 11
177.727665
 21
306.689244
  0
LINE
  8
128
 62
7
  6
CONTINUOUS
 10
177.427665
 20
306.745244
 11
177.577665
 21
306.717244
  0
LINE
  8
128
 62
7
  6
CONTINUOUS
 10
177.277665
 20
306.771244
 11
177.427665
 21
306.745244
  0
LINE
  8
128
 62
7
  6
CONTINUOUS
 10
177.125665
 20
306.797244
 11
177.277665
 21
306.771244
  0
LINE
  8
128
 62
7
  6
CONTINUOUS
 10
176.975665
 20
306.821244
 11
177.125665
 21
306.797244
  0
LINE
  8
128
 62
7
  6
CONTINUOUS
 10
176.823665
 20
306.845244
 11
176.975665
 21
306.821244
  0
LINE
  8
128
 62
7
  6
CONTINUOUS
 10
176.673665
 20
306.867244
 11
176.823665
 21
306.845244
  0
LINE
  8
128
 62
7
  6
CONTINUOUS
 10
176.521665
 20
306.887244
 11
176.673665
 21
306.867244
  0
LINE
  8
128
 62
7
  6
CONTINUOUS
 10
176.369665
 20
306.905244
 11
176.521665
 21
306.887244
  0
LINE
  8
128
 62
7
  6
CONTINUOUS
 10
176.139665
 20
306.931244
 11
176.369665
 21
306.905244
  0
LINE
  8
128
 62
7
  6
CONTINUOUS
 10
175.907665
 20
306.955244
 11
176.139665
 21
306.931244
  0
LINE
  8
128
 62
7
  6
CONTINUOUS
 10
175.675665
 20
306.975244
 11
175.907665
 21
306.955244
  0
LINE
  8
128
 62
7
  6
CONTINUOUS
 10
175.443665
 20
306.993244
 11
175.675665
 21
306.975244
  0
LINE
  8
128
 62
7
  6
CONTINUOUS
 10
175.211665
 20
307.007244
 11
175.443665
 21
306.993244
  0
LINE
  8
128
 62
7
  6
CONTINUOUS
 10
174.979665
 20
307.021244
 11
175.211665
 21
307.007244
  0
LINE
  8
128
 62
7
  6
CONTINUOUS
 10
174.747665
 20
307.031244
 11
174.979665
 21
307.021244
  0
LINE
  8
128
 62
7
  6
CONTINUOUS
 10
174.515665
 20
307.041244
 11
174.747665
 21
307.031244
  0
LINE
  8
128
 62
7
  6
CONTINUOUS
 10
174.281665
 20
307.051244
 11
174.515665
 21
307.041244
  0
LINE
  8
128
 62
7
  6
CONTINUOUS
 10
174.049665
 20
307.057244
 11
174.281665
 21
307.051244
  0
LINE
  8
128
 62
7
  6
CONTINUOUS
 10
173.667665
 20
307.069244
 11
174.049665
 21
307.057244
  0
LINE
  8
128
 62
7
  6
CONTINUOUS
 10
173.285665
 20
307.079244
 11
173.667665
 21
307.069244
  0
LINE
  8
128
 62
7
  6
CONTINUOUS
 10
172.905665
 20
307.085244
 11
173.285665
 21
307.079244
  0
LINE
  8
128
 62
7
  6
CONTINUOUS
 10
172.523665
 20
307.091244
 11
172.905665
 21
307.085244
  0
LINE
  8
128
 62
7
  6
CONTINUOUS
 10
172.141665
 20
307.095244
 11
172.523665
 21
307.091244
  0
LINE
  8
128
 62
7
  6
CONTINUOUS
 10
171.761665
 20
307.097244
 11
172.141665
 21
307.095244
  0
LINE
  8
128
 62
7
  6
CONTINUOUS
 10
171.379665
 20
307.097244
 11
171.761665
 21
307.097244
  0
LINE
  8
128
 62
7
  6
CONTINUOUS
 10
170.997665
 20
307.097244
 11
171.379665
 21
307.097244
  0
LINE
  8
128
 62
7
  6
CONTINUOUS
 10
170.615665
 20
307.093244
 11
170.997665
 21
307.097244
  0
LINE
  8
128
 62
7
  6
CONTINUOUS
 10
170.233665
 20
307.089244
 11
170.615665
 21
307.093244
  0
LINE
  8
128
 62
7
  6
CONTINUOUS
 10
169.931665
 20
307.085244
 11
170.233665
 21
307.089244
  0
LINE
  8
128
 62
7
  6
CONTINUOUS
 10
169.629665
 20
307.079244
 11
169.931665
 21
307.085244
  0
LINE
  8
128
 62
7
  6
CONTINUOUS
 10
169.327665
 20
307.071244
 11
169.629665
 21
307.079244
  0
LINE
  8
128
 62
7
  6
CONTINUOUS
 10
169.025665
 20
307.061244
 11
169.327665
 21
307.071244
  0
LINE
  8
128
 62
7
  6
CONTINUOUS
 10
168.725665
 20
307.049244
 11
169.025665
 21
307.061244
  0
LINE
  8
128
 62
7
  6
CONTINUOUS
 10
168.423665
 20
307.035244
 11
168.725665
 21
307.049244
  0
LINE
  8
128
 62
7
  6
CONTINUOUS
 10
168.121665
 20
307.017244
 11
168.423665
 21
307.035244
  0
LINE
  8
128
 62
7
  6
CONTINUOUS
 10
167.821665
 20
306.997244
 11
168.121665
 21
307.017244
  0
LINE
  8
128
 62
7
  6
CONTINUOUS
 10
167.519665
 20
306.971244
 11
167.821665
 21
306.997244
  0
LINE
  8
128
 62
7
  6
CONTINUOUS
 10
167.219665
 20
306.943244
 11
167.519665
 21
306.971244
  0
LINE
  8
128
 62
7
  6
CONTINUOUS
 10
167.021665
 20
306.923244
 11
167.219665
 21
306.943244
  0
LINE
  8
128
 62
7
  6
CONTINUOUS
 10
166.825665
 20
306.899244
 11
167.021665
 21
306.923244
  0
LINE
  8
128
 62
7
  6
CONTINUOUS
 10
166.627665
 20
306.875244
 11
166.825665
 21
306.899244
  0
LINE
  8
128
 62
7
  6
CONTINUOUS
 10
166.431665
 20
306.849244
 11
166.627665
 21
306.875244
  0
LINE
  8
128
 62
7
  6
CONTINUOUS
 10
166.235665
 20
306.821244
 11
166.431665
 21
306.849244
  0
LINE
  8
128
 62
7
  6
CONTINUOUS
 10
166.039665
 20
306.791244
 11
166.235665
 21
306.821244
  0
LINE
  8
128
 62
7
  6
CONTINUOUS
 10
165.843665
 20
306.761244
 11
166.039665
 21
306.791244
  0
LINE
  8
128
 62
7
  6
CONTINUOUS
 10
165.647665
 20
306.727244
 11
165.843665
 21
306.761244
  0
LINE
  8
128
 62
7
  6
CONTINUOUS
 10
165.453665
 20
306.693244
 11
165.647665
 21
306.727244
  0
LINE
  8
128
 62
7
  6
CONTINUOUS
 10
165.257665
 20
306.659244
 11
165.453665
 21
306.693244
  0
ARC
  8
128
 62
7
  6
CONTINUOUS
 10
171.567665
 20
278.865244
 40
28.500000
 50
102.791114
 51
103.721250
  0
LINE
  8
128
 62
7
  6
CONTINUOUS
 10
164.807665
 20
303.081244
 11
164.807665
 21
306.553244
  0
LINE
  8
128
 62
7
  6
CONTINUOUS
 10
164.675665
 20
303.063244
 11
164.807665
 21
303.081244
  0
ARC
  8
128
 62
7
  6
CONTINUOUS
 10
171.567665
 20
278.513244
 40
25.500000
 50
105.679518
 51
-105.678897
  0
ARC
  8
128
 62
7
  6
CONTINUOUS
 10
-3524.510335
 20
237.281244
 40
3689.224000
 50
0.259055
 51
0.304937
  0
ARC
  8
128
 62
7
  6
CONTINUOUS
 10
180.043665
 20
301.233244
 40
15.476000
 50
173.207958
 51
173.677717
  0
LINE
  8
128
 62
7
  6
CONTINUOUS
 10
164.431665
 20
302.863244
 11
164.661665
 21
302.937244
  0
LINE
  8
128
 62
7
  6
CONTINUOUS
 10
164.203665
 20
302.787244
 11
164.431665
 21
302.863244
  0
LINE
  8
128
 62
7
  6
CONTINUOUS
 10
163.975665
 20
302.707244
 11
164.203665
 21
302.787244
  0
LINE
  8
128
 62
7
  6
CONTINUOUS
 10
163.747665
 20
302.627244
 11
163.975665
 21
302.707244
  0
LINE
  8
128
 62
7
  6
CONTINUOUS
 10
163.521665
 20
302.543244
 11
163.747665
 21
302.627244
  0
LINE
  8
128
 62
7
  6
CONTINUOUS
 10
163.295665
 20
302.455244
 11
163.521665
 21
302.543244
  0
LINE
  8
128
 62
7
  6
CONTINUOUS
 10
163.069665
 20
302.367244
 11
163.295665
 21
302.455244
  0
LINE
  8
128
 62
7
  6
CONTINUOUS
 10
162.847665
 20
302.277244
 11
163.069665
 21
302.367244
  0
LINE
  8
128
 62
7
  6
CONTINUOUS
 10
162.623665
 20
302.183244
 11
162.847665
 21
302.277244
  0
LINE
  8
128
 62
7
  6
CONTINUOUS
 10
162.401665
 20
302.087244
 11
162.623665
 21
302.183244
  0
LINE
  8
128
 62
7
  6
CONTINUOUS
 10
162.107665
 20
301.957244
 11
162.401665
 21
302.087244
  0
LINE
  8
128
 62
7
  6
CONTINUOUS
 10
161.815665
 20
301.821244
 11
162.107665
 21
301.957244
  0
LINE
  8
128
 62
7
  6
CONTINUOUS
 10
161.523665
 20
301.683244
 11
161.815665
 21
301.821244
  0
LINE
  8
128
 62
7
  6
CONTINUOUS
 10
161.235665
 20
301.539244
 11
161.523665
 21
301.683244
  0
LINE
  8
128
 62
7
  6
CONTINUOUS
 10
160.947665
 20
301.391244
 11
161.235665
 21
301.539244
  0
LINE
  8
128
 62
7
  6
CONTINUOUS
 10
160.663665
 20
301.241244
 11
160.947665
 21
301.391244
  0
LINE
  8
128
 62
7
  6
CONTINUOUS
 10
160.381665
 20
301.085244
 11
160.663665
 21
301.241244
  0
LINE
  8
128
 62
7
  6
CONTINUOUS
 10
160.099665
 20
300.925244
 11
160.381665
 21
301.085244
  0
LINE
  8
128
 62
7
  6
CONTINUOUS
 10
159.821665
 20
300.763244
 11
160.099665
 21
300.925244
  0
LINE
  8
128
 62
7
  6
CONTINUOUS
 10
159.545665
 20
300.597244
 11
159.821665
 21
300.763244
  0
LINE
  8
128
 62
7
  6
CONTINUOUS
 10
159.207665
 20
300.385244
 11
159.545665
 21
300.597244
  0
LINE
  8
128
 62
7
  6
CONTINUOUS
 10
158.871665
 20
300.169244
 11
159.207665
 21
300.385244
  0
LINE
  8
128
 62
7
  6
CONTINUOUS
 10
158.541665
 20
299.947244
 11
158.871665
 21
300.169244
  0
LINE
  8
128
 62
7
  6
CONTINUOUS
 10
158.213665
 20
299.719244
 11
158.541665
 21
299.947244
  0
LINE
  8
128
 62
7
  6
CONTINUOUS
 10
157.889665
 20
299.485244
 11
158.213665
 21
299.719244
  0
LINE
  8
128
 62
7
  6
CONTINUOUS
 10
157.569665
 20
299.245244
 11
157.889665
 21
299.485244
  0
LINE
  8
128
 62
7
  6
CONTINUOUS
 10
157.255665
 20
299.001244
 11
157.569665
 21
299.245244
  0
LINE
  8
128
 62
7
  6
CONTINUOUS
 10
156.943665
 20
298.751244
 11
157.255665
 21
299.001244
  0
LINE
  8
128
 62
7
  6
CONTINUOUS
 10
156.637665
 20
298.497244
 11
156.943665
 21
298.751244
  0
LINE
  8
128
 62
7
  6
CONTINUOUS
 10
156.335665
 20
298.237244
 11
156.637665
 21
298.497244
  0
LINE
  8
128
 62
7
  6
CONTINUOUS
 10
156.153665
 20
298.077244
 11
156.335665
 21
298.237244
  0
LINE
  8
128
 62
7
  6
CONTINUOUS
 10
155.975665
 20
297.917244
 11
156.153665
 21
298.077244
  0
LINE
  8
128
 62
7
  6
CONTINUOUS
 10
155.799665
 20
297.753244
 11
155.975665
 21
297.917244
  0
LINE
  8
128
 62
7
  6
CONTINUOUS
 10
155.623665
 20
297.589244
 11
155.799665
 21
297.753244
  0
LINE
  8
128
 62
7
  6
CONTINUOUS
 10
155.449665
 20
297.421244
 11
155.623665
 21
297.589244
  0
LINE
  8
128
 62
7
  6
CONTINUOUS
 10
155.279665
 20
297.253244
 11
155.449665
 21
297.421244
  0
LINE
  8
128
 62
7
  6
CONTINUOUS
 10
155.107665
 20
297.083244
 11
155.279665
 21
297.253244
  0
LINE
  8
128
 62
7
  6
CONTINUOUS
 10
154.939665
 20
296.911244
 11
155.107665
 21
297.083244
  0
LINE
  8
128
 62
7
  6
CONTINUOUS
 10
154.773665
 20
296.739244
 11
154.939665
 21
296.911244
  0
LINE
  8
128
 62
7
  6
CONTINUOUS
 10
154.607665
 20
296.563244
 11
154.773665
 21
296.739244
  0
LINE
  8
128
 62
7
  6
CONTINUOUS
 10
154.401665
 20
296.339244
 11
154.607665
 21
296.563244
  0
LINE
  8
128
 62
7
  6
CONTINUOUS
 10
154.197665
 20
296.111244
 11
154.401665
 21
296.339244
  0
LINE
  8
128
 62
7
  6
CONTINUOUS
 10
153.995665
 20
295.881244
 11
154.197665
 21
296.111244
  0
LINE
  8
128
 62
7
  6
CONTINUOUS
 10
153.797665
 20
295.649244
 11
153.995665
 21
295.881244
  0
LINE
  8
128
 62
7
  6
CONTINUOUS
 10
153.601665
 20
295.413244
 11
153.797665
 21
295.649244
  0
LINE
  8
128
 62
7
  6
CONTINUOUS
 10
153.407665
 20
295.177244
 11
153.601665
 21
295.413244
  0
LINE
  8
128
 62
7
  6
CONTINUOUS
 10
153.219665
 20
294.937244
 11
153.407665
 21
295.177244
  0
LINE
  8
128
 62
7
  6
CONTINUOUS
 10
153.031665
 20
294.695244
 11
153.219665
 21
294.937244
  0
LINE
  8
128
 62
7
  6
CONTINUOUS
 10
152.847665
 20
294.451244
 11
153.031665
 21
294.695244
  0
LINE
  8
128
 62
7
  6
CONTINUOUS
 10
152.667665
 20
294.203244
 11
152.847665
 21
294.451244
  0
LINE
  8
128
 62
7
  6
CONTINUOUS
 10
152.421665
 20
293.855244
 11
152.667665
 21
294.203244
  0
LINE
  8
128
 62
7
  6
CONTINUOUS
 10
152.179665
 20
293.503244
 11
152.421665
 21
293.855244
  0
LINE
  8
128
 62
7
  6
CONTINUOUS
 10
151.945665
 20
293.147244
 11
152.179665
 21
293.503244
  0
LINE
  8
128
 62
7
  6
CONTINUOUS
 10
151.717665
 20
292.785244
 11
151.945665
 21
293.147244
  0
LINE
  8
128
 62
7
  6
CONTINUOUS
 10
151.495665
 20
292.421244
 11
151.717665
 21
292.785244
  0
LINE
  8
128
 62
7
  6
CONTINUOUS
 10
151.281665
 20
292.051244
 11
151.495665
 21
292.421244
  0
LINE
  8
128
 62
7
  6
CONTINUOUS
 10
151.071665
 20
291.679244
 11
151.281665
 21
292.051244
  0
LINE
  8
128
 62
7
  6
CONTINUOUS
 10
150.869665
 20
291.303244
 11
151.071665
 21
291.679244
  0
LINE
  8
128
 62
7
  6
CONTINUOUS
 10
150.675665
 20
290.923244
 11
150.869665
 21
291.303244
  0
LINE
  8
128
 62
7
  6
CONTINUOUS
 10
150.485665
 20
290.539244
 11
150.675665
 21
290.923244
  0
LINE
  8
128
 62
7
  6
CONTINUOUS
 10
150.293665
 20
290.133244
 11
150.485665
 21
290.539244
  0
LINE
  8
128
 62
7
  6
CONTINUOUS
 10
150.109665
 20
289.721244
 11
150.293665
 21
290.133244
  0
LINE
  8
128
 62
7
  6
CONTINUOUS
 10
149.933665
 20
289.307244
 11
150.109665
 21
289.721244
  0
LINE
  8
128
 62
7
  6
CONTINUOUS
 10
149.765665
 20
288.889244
 11
149.933665
 21
289.307244
  0
LINE
  8
128
 62
7
  6
CONTINUOUS
 10
149.603665
 20
288.469244
 11
149.765665
 21
288.889244
  0
LINE
  8
128
 62
7
  6
CONTINUOUS
 10
149.451665
 20
288.045244
 11
149.603665
 21
288.469244
  0
LINE
  8
128
 62
7
  6
CONTINUOUS
 10
149.305665
 20
287.619244
 11
149.451665
 21
288.045244
  0
LINE
  8
128
 62
7
  6
CONTINUOUS
 10
149.167665
 20
287.191244
 11
149.305665
 21
287.619244
  0
LINE
  8
128
 62
7
  6
CONTINUOUS
 10
149.037665
 20
286.759244
 11
149.167665
 21
287.191244
  0
LINE
  8
128
 62
7
  6
CONTINUOUS
 10
148.917665
 20
286.325244
 11
149.037665
 21
286.759244
  0
LINE
  8
128
 62
7
  6
CONTINUOUS
 10
148.793665
 20
285.857244
 11
148.917665
 21
286.325244
  0
LINE
  8
128
 62
7
  6
CONTINUOUS
 10
148.681665
 20
285.383244
 11
148.793665
 21
285.857244
  0
LINE
  8
128
 62
7
  6
CONTINUOUS
 10
148.577665
 20
284.909244
 11
148.681665
 21
285.383244
  0
LINE
  8
128
 62
7
  6
CONTINUOUS
 10
148.483665
 20
284.433244
 11
148.577665
 21
284.909244
  0
LINE
  8
128
 62
7
  6
CONTINUOUS
 10
148.399665
 20
283.955244
 11
148.483665
 21
284.433244
  0
LINE
  8
128
 62
7
  6
CONTINUOUS
 10
148.323665
 20
283.475244
 11
148.399665
 21
283.955244
  0
LINE
  8
128
 62
7
  6
CONTINUOUS
 10
148.259665
 20
282.995244
 11
148.323665
 21
283.475244
  0
LINE
  8
128
 62
7
  6
CONTINUOUS
 10
148.203665
 20
282.513244
 11
148.259665
 21
282.995244
  0
LINE
  8
128
 62
7
  6
CONTINUOUS
 10
148.155665
 20
282.029244
 11
148.203665
 21
282.513244
  0
LINE
  8
128
 62
7
  6
CONTINUOUS
 10
148.119665
 20
281.545244
 11
148.155665
 21
282.029244
  0
LINE
  8
128
 62
7
  6
CONTINUOUS
 10
148.095665
 20
281.149244
 11
148.119665
 21
281.545244
  0
LINE
  8
128
 62
7
  6
CONTINUOUS
 10
148.079665
 20
280.755244
 11
148.095665
 21
281.149244
  0
LINE
  8
128
 62
7
  6
CONTINUOUS
 10
148.069665
 20
280.359244
 11
148.079665
 21
280.755244
  0
LINE
  8
128
 62
7
  6
CONTINUOUS
 10
148.065665
 20
279.963244
 11
148.069665
 21
280.359244
  0
LINE
  8
128
 62
7
  6
CONTINUOUS
 10
148.069665
 20
279.567244
 11
148.065665
 21
279.963244
  0
LINE
  8
128
 62
7
  6
CONTINUOUS
 10
148.077665
 20
279.171244
 11
148.069665
 21
279.567244
  0
LINE
  8
128
 62
7
  6
CONTINUOUS
 10
148.093665
 20
278.775244
 11
148.077665
 21
279.171244
  0
LINE
  8
128
 62
7
  6
CONTINUOUS
 10
148.115665
 20
278.379244
 11
148.093665
 21
278.775244
  0
LINE
  8
128
 62
7
  6
CONTINUOUS
 10
148.143665
 20
277.983244
 11
148.115665
 21
278.379244
  0
LINE
  8
128
 62
7
  6
CONTINUOUS
 10
148.177665
 20
277.589244
 11
148.143665
 21
277.983244
  0
LINE
  8
128
 62
7
  6
CONTINUOUS
 10
148.213665
 20
277.245244
 11
148.177665
 21
277.589244
  0
LINE
  8
128
 62
7
  6
CONTINUOUS
 10
148.253665
 20
276.901244
 11
148.213665
 21
277.245244
  0
LINE
  8
128
 62
7
  6
CONTINUOUS
 10
148.297665
 20
276.557244
 11
148.253665
 21
276.901244
  0
LINE
  8
128
 62
7
  6
CONTINUOUS
 10
148.347665
 20
276.215244
 11
148.297665
 21
276.557244
  0
LINE
  8
128
 62
7
  6
CONTINUOUS
 10
148.403665
 20
275.873244
 11
148.347665
 21
276.215244
  0
LINE
  8
128
 62
7
  6
CONTINUOUS
 10
148.463665
 20
275.531244
 11
148.403665
 21
275.873244
  0
LINE
  8
128
 62
7
  6
CONTINUOUS
 10
148.527665
 20
275.191244
 11
148.463665
 21
275.531244
  0
LINE
  8
128
 62
7
  6
CONTINUOUS
 10
148.597665
 20
274.851244
 11
148.527665
 21
275.191244
  0
LINE
  8
128
 62
7
  6
CONTINUOUS
 10
148.671665
 20
274.513244
 11
148.597665
 21
274.851244
  0
LINE
  8
128
 62
7
  6
CONTINUOUS
 10
148.749665
 20
274.175244
 11
148.671665
 21
274.513244
  0
LINE
  8
128
 62
7
  6
CONTINUOUS
 10
148.837665
 20
273.827244
 11
148.749665
 21
274.175244
  0
LINE
  8
128
 62
7
  6
CONTINUOUS
 10
148.929665
 20
273.481244
 11
148.837665
 21
273.827244
  0
LINE
  8
128
 62
7
  6
CONTINUOUS
 10
149.025665
 20
273.135244
 11
148.929665
 21
273.481244
  0
LINE
  8
128
 62
7
  6
CONTINUOUS
 10
149.129665
 20
272.791244
 11
149.025665
 21
273.135244
  0
LINE
  8
128
 62
7
  6
CONTINUOUS
 10
149.235665
 20
272.449244
 11
149.129665
 21
272.791244
  0
LINE
  8
128
 62
7
  6
CONTINUOUS
 10
149.347665
 20
272.109244
 11
149.235665
 21
272.449244
  0
LINE
  8
128
 62
7
  6
CONTINUOUS
 10
149.465665
 20
271.769244
 11
149.347665
 21
272.109244
  0
LINE
  8
128
 62
7
  6
CONTINUOUS
 10
149.587665
 20
271.431244
 11
149.465665
 21
271.769244
  0
LINE
  8
128
 62
7
  6
CONTINUOUS
 10
149.715665
 20
271.095244
 11
149.587665
 21
271.431244
  0
LINE
  8
128
 62
7
  6
CONTINUOUS
 10
149.847665
 20
270.761244
 11
149.715665
 21
271.095244
  0
LINE
  8
128
 62
7
  6
CONTINUOUS
 10
149.967665
 20
270.467244
 11
149.847665
 21
270.761244
  0
LINE
  8
128
 62
7
  6
CONTINUOUS
 10
150.093665
 20
270.173244
 11
149.967665
 21
270.467244
  0
LINE
  8
128
 62
7
  6
CONTINUOUS
 10
150.223665
 20
269.881244
 11
150.093665
 21
270.173244
  0
LINE
  8
128
 62
7
  6
CONTINUOUS
 10
150.355665
 20
269.589244
 11
150.223665
 21
269.881244
  0
LINE
  8
128
 62
7
  6
CONTINUOUS
 10
150.491665
 20
269.301244
 11
150.355665
 21
269.589244
  0
LINE
  8
128
 62
7
  6
CONTINUOUS
 10
150.633665
 20
269.013244
 11
150.491665
 21
269.301244
  0
LINE
  8
128
 62
7
  6
CONTINUOUS
 10
150.777665
 20
268.729244
 11
150.633665
 21
269.013244
  0
LINE
  8
128
 62
7
  6
CONTINUOUS
 10
150.925665
 20
268.445244
 11
150.777665
 21
268.729244
  0
LINE
  8
128
 62
7
  6
CONTINUOUS
 10
151.077665
 20
268.165244
 11
150.925665
 21
268.445244
  0
LINE
  8
128
 62
7
  6
CONTINUOUS
 10
151.231665
 20
267.885244
 11
151.077665
 21
268.165244
  0
LINE
  8
128
 62
7
  6
CONTINUOUS
 10
151.333665
 20
267.707244
 11
151.231665
 21
267.885244
  0
LINE
  8
128
 62
7
  6
CONTINUOUS
 10
151.437665
 20
267.531244
 11
151.333665
 21
267.707244
  0
LINE
  8
128
 62
7
  6
CONTINUOUS
 10
151.541665
 20
267.355244
 11
151.437665
 21
267.531244
  0
LINE
  8
128
 62
7
  6
CONTINUOUS
 10
151.647665
 20
267.179244
 11
151.541665
 21
267.355244
  0
LINE
  8
128
 62
7
  6
CONTINUOUS
 10
151.755665
 20
267.005244
 11
151.647665
 21
267.179244
  0
LINE
  8
128
 62
7
  6
CONTINUOUS
 10
151.865665
 20
266.833244
 11
151.755665
 21
267.005244
  0
LINE
  8
128
 62
7
  6
CONTINUOUS
 10
151.975665
 20
266.659244
 11
151.865665
 21
266.833244
  0
LINE
  8
128
 62
7
  6
CONTINUOUS
 10
152.087665
 20
266.489244
 11
151.975665
 21
266.659244
  0
LINE
  8
128
 62
7
  6
CONTINUOUS
 10
152.201665
 20
266.317244
 11
152.087665
 21
266.489244
  0
LINE
  8
128
 62
7
  6
CONTINUOUS
 10
152.315665
 20
266.149244
 11
152.201665
 21
266.317244
  0
LINE
  8
128
 62
7
  6
CONTINUOUS
 10
152.433665
 20
265.979244
 11
152.315665
 21
266.149244
  0
LINE
  8
128
 62
7
  6
CONTINUOUS
 10
152.551665
 20
265.811244
 11
152.433665
 21
265.979244
  0
LINE
  8
128
 62
7
  6
CONTINUOUS
 10
152.671665
 20
265.643244
 11
152.551665
 21
265.811244
  0
LINE
  8
128
 62
7
  6
CONTINUOUS
 10
152.793665
 20
265.477244
 11
152.671665
 21
265.643244
  0
LINE
  8
128
 62
7
  6
CONTINUOUS
 10
152.917665
 20
265.311244
 11
152.793665
 21
265.477244
  0
LINE
  8
128
 62
7
  6
CONTINUOUS
 10
153.041665
 20
265.147244
 11
152.917665
 21
265.311244
  0
LINE
  8
128
 62
7
  6
CONTINUOUS
 10
153.167665
 20
264.983244
 11
153.041665
 21
265.147244
  0
LINE
  8
128
 62
7
  6
CONTINUOUS
 10
153.293665
 20
264.821244
 11
153.167665
 21
264.983244
  0
LINE
  8
128
 62
7
  6
CONTINUOUS
 10
153.421665
 20
264.661244
 11
153.293665
 21
264.821244
  0
LINE
  8
128
 62
7
  6
CONTINUOUS
 10
153.551665
 20
264.499244
 11
153.421665
 21
264.661244
  0
LINE
  8
128
 62
7
  6
CONTINUOUS
 10
153.861665
 20
264.129244
 11
153.551665
 21
264.499244
  0
LINE
  8
128
 62
7
  6
CONTINUOUS
 10
154.177665
 20
263.763244
 11
153.861665
 21
264.129244
  0
LINE
  8
128
 62
7
  6
CONTINUOUS
 10
154.501665
 20
263.405244
 11
154.177665
 21
263.763244
  0
LINE
  8
128
 62
7
  6
CONTINUOUS
 10
154.833665
 20
263.053244
 11
154.501665
 21
263.405244
  0
LINE
  8
128
 62
7
  6
CONTINUOUS
 10
155.171665
 20
262.707244
 11
154.833665
 21
263.053244
  0
LINE
  8
128
 62
7
  6
CONTINUOUS
 10
155.515665
 20
262.367244
 11
155.171665
 21
262.707244
  0
LINE
  8
128
 62
7
  6
CONTINUOUS
 10
155.867665
 20
262.035244
 11
155.515665
 21
262.367244
  0
LINE
  8
128
 62
7
  6
CONTINUOUS
 10
156.225665
 20
261.711244
 11
155.867665
 21
262.035244
  0
LINE
  8
128
 62
7
  6
CONTINUOUS
 10
156.589665
 20
261.395244
 11
156.225665
 21
261.711244
  0
LINE
  8
128
 62
7
  6
CONTINUOUS
 10
156.961665
 20
261.085244
 11
156.589665
 21
261.395244
  0
LINE
  8
128
 62
7
  6
CONTINUOUS
 10
157.147665
 20
260.935244
 11
156.961665
 21
261.085244
  0
LINE
  8
128
 62
7
  6
CONTINUOUS
 10
157.335665
 20
260.787244
 11
157.147665
 21
260.935244
  0
LINE
  8
128
 62
7
  6
CONTINUOUS
 10
157.525665
 20
260.639244
 11
157.335665
 21
260.787244
  0
LINE
  8
128
 62
7
  6
CONTINUOUS
 10
157.717665
 20
260.495244
 11
157.525665
 21
260.639244
  0
LINE
  8
128
 62
7
  6
CONTINUOUS
 10
157.909665
 20
260.353244
 11
157.717665
 21
260.495244
  0
LINE
  8
128
 62
7
  6
CONTINUOUS
 10
158.103665
 20
260.211244
 11
157.909665
 21
260.353244
  0
LINE
  8
128
 62
7
  6
CONTINUOUS
 10
158.297665
 20
260.073244
 11
158.103665
 21
260.211244
  0
LINE
  8
128
 62
7
  6
CONTINUOUS
 10
158.495665
 20
259.937244
 11
158.297665
 21
260.073244
  0
LINE
  8
128
 62
7
  6
CONTINUOUS
 10
158.693665
 20
259.803244
 11
158.495665
 21
259.937244
  0
LINE
  8
128
 62
7
  6
CONTINUOUS
 10
158.893665
 20
259.669244
 11
158.693665
 21
259.803244
  0
LINE
  8
128
 62
7
  6
CONTINUOUS
 10
159.095665
 20
259.539244
 11
158.893665
 21
259.669244
  0
LINE
  8
128
 62
7
  6
CONTINUOUS
 10
159.299665
 20
259.409244
 11
159.095665
 21
259.539244
  0
LINE
  8
128
 62
7
  6
CONTINUOUS
 10
159.503665
 20
259.281244
 11
159.299665
 21
259.409244
  0
LINE
  8
128
 62
7
  6
CONTINUOUS
 10
159.709665
 20
259.155244
 11
159.503665
 21
259.281244
  0
LINE
  8
128
 62
7
  6
CONTINUOUS
 10
159.917665
 20
259.033244
 11
159.709665
 21
259.155244
  0
LINE
  8
128
 62
7
  6
CONTINUOUS
 10
160.127665
 20
258.911244
 11
159.917665
 21
259.033244
  0
LINE
  8
128
 62
7
  6
CONTINUOUS
 10
160.337665
 20
258.793244
 11
160.127665
 21
258.911244
  0
LINE
  8
128
 62
7
  6
CONTINUOUS
 10
160.547665
 20
258.675244
 11
160.337665
 21
258.793244
  0
LINE
  8
128
 62
7
  6
CONTINUOUS
 10
160.761665
 20
258.561244
 11
160.547665
 21
258.675244
  0
LINE
  8
128
 62
7
  6
CONTINUOUS
 10
160.975665
 20
258.449244
 11
160.761665
 21
258.561244
  0
LINE
  8
128
 62
7
  6
CONTINUOUS
 10
161.331665
 20
258.267244
 11
160.975665
 21
258.449244
  0
LINE
  8
128
 62
7
  6
CONTINUOUS
 10
161.689665
 20
258.093244
 11
161.331665
 21
258.267244
  0
LINE
  8
128
 62
7
  6
CONTINUOUS
 10
162.053665
 20
257.923244
 11
161.689665
 21
258.093244
  0
LINE
  8
128
 62
7
  6
CONTINUOUS
 10
162.417665
 20
257.761244
 11
162.053665
 21
257.923244
  0
LINE
  8
128
 62
7
  6
CONTINUOUS
 10
162.785665
 20
257.603244
 11
162.417665
 21
257.761244
  0
LINE
  8
128
 62
7
  6
CONTINUOUS
 10
163.157665
 20
257.453244
 11
162.785665
 21
257.603244
  0
LINE
  8
128
 62
7
  6
CONTINUOUS
 10
163.529665
 20
257.309244
 11
163.157665
 21
257.453244
  0
LINE
  8
128
 62
7
  6
CONTINUOUS
 10
163.905665
 20
257.171244
 11
163.529665
 21
257.309244
  0
LINE
  8
128
 62
7
  6
CONTINUOUS
 10
164.281665
 20
257.039244
 11
163.905665
 21
257.171244
  0
LINE
  8
128
 62
7
  6
CONTINUOUS
 10
164.661665
 20
256.915244
 11
164.281665
 21
257.039244
  0
ARC
  8
128
 62
7
  6
CONTINUOUS
 10
164.807665
 20
257.371244
 40
0.478000
 50
-107.704383
 51
-90.004691
  0
ARC
  8
128
 62
7
  6
CONTINUOUS
 10
178.327665
 20
257.371244
 40
0.480000
 50
-89.973455
 51
-72.392252
  0
ARC
  8
128
 62
7
  6
CONTINUOUS
 10
3400.605665
 20
239.699244
 40
3222.178000
 50
179.693904
 51
179.746419
  0
LINE
  8
128
 62
7
  6
CONTINUOUS
 10
178.703665
 20
256.989244
 11
178.471665
 21
256.913244
  0
LINE
  8
128
 62
7
  6
CONTINUOUS
 10
178.935665
 20
257.067244
 11
178.703665
 21
256.989244
  0
LINE
  8
128
 62
7
  6
CONTINUOUS
 10
179.165665
 20
257.147244
 11
178.935665
 21
257.067244
  0
LINE
  8
128
 62
7
  6
CONTINUOUS
 10
179.395665
 20
257.229244
 11
179.165665
 21
257.147244
  0
LINE
  8
128
 62
7
  6
CONTINUOUS
 10
179.623665
 20
257.313244
 11
179.395665
 21
257.229244
  0
LINE
  8
128
 62
7
  6
CONTINUOUS
 10
179.851665
 20
257.401244
 11
179.623665
 21
257.313244
  0
LINE
  8
128
 62
7
  6
CONTINUOUS
 10
180.077665
 20
257.491244
 11
179.851665
 21
257.401244
  0
LINE
  8
128
 62
7
  6
CONTINUOUS
 10
180.303665
 20
257.583244
 11
180.077665
 21
257.491244
  0
LINE
  8
128
 62
7
  6
CONTINUOUS
 10
180.529665
 20
257.677244
 11
180.303665
 21
257.583244
  0
LINE
  8
128
 62
7
  6
CONTINUOUS
 10
180.751665
 20
257.773244
 11
180.529665
 21
257.677244
  0
LINE
  8
128
 62
7
  6
CONTINUOUS
 10
181.049665
 20
257.905244
 11
180.751665
 21
257.773244
  0
LINE
  8
128
 62
7
  6
CONTINUOUS
 10
181.343665
 20
258.043244
 11
181.049665
 21
257.905244
  0
LINE
  8
128
 62
7
  6
CONTINUOUS
 10
181.635665
 20
258.183244
 11
181.343665
 21
258.043244
  0
LINE
  8
128
 62
7
  6
CONTINUOUS
 10
181.925665
 20
258.327244
 11
181.635665
 21
258.183244
  0
LINE
  8
128
 62
7
  6
CONTINUOUS
 10
182.213665
 20
258.477244
 11
181.925665
 21
258.327244
  0
LINE
  8
128
 62
7
  6
CONTINUOUS
 10
182.499665
 20
258.629244
 11
182.213665
 21
258.477244
  0
LINE
  8
128
 62
7
  6
CONTINUOUS
 10
182.785665
 20
258.785244
 11
182.499665
 21
258.629244
  0
LINE
  8
128
 62
7
  6
CONTINUOUS
 10
183.067665
 20
258.945244
 11
182.785665
 21
258.785244
  0
LINE
  8
128
 62
7
  6
CONTINUOUS
 10
183.345665
 20
259.111244
 11
183.067665
 21
258.945244
  0
LINE
  8
128
 62
7
  6
CONTINUOUS
 10
183.623665
 20
259.279244
 11
183.345665
 21
259.111244
  0
LINE
  8
128
 62
7
  6
CONTINUOUS
 10
183.963665
 20
259.491244
 11
183.623665
 21
259.279244
  0
LINE
  8
128
 62
7
  6
CONTINUOUS
 10
184.297665
 20
259.709244
 11
183.963665
 21
259.491244
  0
LINE
  8
128
 62
7
  6
CONTINUOUS
 10
184.629665
 20
259.931244
 11
184.297665
 21
259.709244
  0
LINE
  8
128
 62
7
  6
CONTINUOUS
 10
184.955665
 20
260.161244
 11
184.629665
 21
259.931244
  0
LINE
  8
128
 62
7
  6
CONTINUOUS
 10
185.279665
 20
260.395244
 11
184.955665
 21
260.161244
  0
LINE
  8
128
 62
7
  6
CONTINUOUS
 10
185.599665
 20
260.635244
 11
185.279665
 21
260.395244
  0
LINE
  8
128
 62
7
  6
CONTINUOUS
 10
185.915665
 20
260.879244
 11
185.599665
 21
260.635244
  0
LINE
  8
128
 62
7
  6
CONTINUOUS
 10
186.225665
 20
261.131244
 11
185.915665
 21
260.879244
  0
LINE
  8
128
 62
7
  6
CONTINUOUS
 10
186.533665
 20
261.385244
 11
186.225665
 21
261.131244
  0
LINE
  8
128
 62
7
  6
CONTINUOUS
 10
186.835665
 20
261.647244
 11
186.533665
 21
261.385244
  0
LINE
  8
128
 62
7
  6
CONTINUOUS
 10
187.015665
 20
261.807244
 11
186.835665
 21
261.647244
  0
LINE
  8
128
 62
7
  6
CONTINUOUS
 10
187.193665
 20
261.967244
 11
187.015665
 21
261.807244
  0
LINE
  8
128
 62
7
  6
CONTINUOUS
 10
187.369665
 20
262.131244
 11
187.193665
 21
261.967244
  0
LINE
  8
128
 62
7
  6
CONTINUOUS
 10
187.545665
 20
262.297244
 11
187.369665
 21
262.131244
  0
LINE
  8
128
 62
7
  6
CONTINUOUS
 10
187.717665
 20
262.463244
 11
187.545665
 21
262.297244
  0
LINE
  8
128
 62
7
  6
CONTINUOUS
 10
187.889665
 20
262.631244
 11
187.717665
 21
262.463244
  0
LINE
  8
128
 62
7
  6
CONTINUOUS
 10
188.059665
 20
262.803244
 11
187.889665
 21
262.631244
  0
LINE
  8
128
 62
7
  6
CONTINUOUS
 10
188.227665
 20
262.975244
 11
188.059665
 21
262.803244
  0
LINE
  8
128
 62
7
  6
CONTINUOUS
 10
188.393665
 20
263.147244
 11
188.227665
 21
262.975244
  0
LINE
  8
128
 62
7
  6
CONTINUOUS
 10
188.557665
 20
263.323244
 11
188.393665
 21
263.147244
  0
LINE
  8
128
 62
7
  6
CONTINUOUS
 10
188.763665
 20
263.549244
 11
188.557665
 21
263.323244
  0
LINE
  8
128
 62
7
  6
CONTINUOUS
 10
188.967665
 20
263.777244
 11
188.763665
 21
263.549244
  0
LINE
  8
128
 62
7
  6
CONTINUOUS
 10
189.169665
 20
264.007244
 11
188.967665
 21
263.777244
  0
LINE
  8
128
 62
7
  6
CONTINUOUS
 10
189.367665
 20
264.239244
 11
189.169665
 21
264.007244
  0
LINE
  8
128
 62
7
  6
CONTINUOUS
 10
189.561665
 20
264.475244
 11
189.367665
 21
264.239244
  0
LINE
  8
128
 62
7
  6
CONTINUOUS
 10
189.755665
 20
264.713244
 11
189.561665
 21
264.475244
  0
LINE
  8
128
 62
7
  6
CONTINUOUS
 10
189.943665
 20
264.953244
 11
189.755665
 21
264.713244
  0
LINE
  8
128
 62
7
  6
CONTINUOUS
 10
190.129665
 20
265.195244
 11
189.943665
 21
264.953244
  0
LINE
  8
128
 62
7
  6
CONTINUOUS
 10
190.313665
 20
265.439244
 11
190.129665
 21
265.195244
  0
LINE
  8
128
 62
7
  6
CONTINUOUS
 10
190.493665
 20
265.687244
 11
190.313665
 21
265.439244
  0
LINE
  8
128
 62
7
  6
CONTINUOUS
 10
190.739665
 20
266.035244
 11
190.493665
 21
265.687244
  0
LINE
  8
128
 62
7
  6
CONTINUOUS
 10
190.979665
 20
266.389244
 11
190.739665
 21
266.035244
  0
LINE
  8
128
 62
7
  6
CONTINUOUS
 10
191.213665
 20
266.745244
 11
190.979665
 21
266.389244
  0
LINE
  8
128
 62
7
  6
CONTINUOUS
 10
191.441665
 20
267.107244
 11
191.213665
 21
266.745244
  0
LINE
  8
128
 62
7
  6
CONTINUOUS
 10
191.661665
 20
267.473244
 11
191.441665
 21
267.107244
  0
LINE
  8
128
 62
7
  6
CONTINUOUS
 10
191.875665
 20
267.841244
 11
191.661665
 21
267.473244
  0
LINE
  8
128
 62
7
  6
CONTINUOUS
 10
192.083665
 20
268.215244
 11
191.875665
 21
267.841244
  0
LINE
  8
128
 62
7
  6
CONTINUOUS
 10
192.285665
 20
268.591244
 11
192.083665
 21
268.215244
  0
LINE
  8
128
 62
7
  6
CONTINUOUS
 10
192.481665
 20
268.971244
 11
192.285665
 21
268.591244
  0
LINE
  8
128
 62
7
  6
CONTINUOUS
 10
192.669665
 20
269.355244
 11
192.481665
 21
268.971244
  0
LINE
  8
128
 62
7
  6
CONTINUOUS
 10
192.859665
 20
269.761244
 11
192.669665
 21
269.355244
  0
LINE
  8
128
 62
7
  6
CONTINUOUS
 10
193.041665
 20
270.171244
 11
192.859665
 21
269.761244
  0
LINE
  8
128
 62
7
  6
CONTINUOUS
 10
193.217665
 20
270.585244
 11
193.041665
 21
270.171244
  0
LINE
  8
128
 62
7
  6
CONTINUOUS
 10
193.383665
 20
271.001244
 11
193.217665
 21
270.585244
  0
LINE
  8
128
 62
7
  6
CONTINUOUS
 10
193.543665
 20
271.419244
 11
193.383665
 21
271.001244
  0
LINE
  8
128
 62
7
  6
CONTINUOUS
 10
193.695665
 20
271.843244
 11
193.543665
 21
271.419244
  0
LINE
  8
128
 62
7
  6
CONTINUOUS
 10
193.839665
 20
272.267244
 11
193.695665
 21
271.843244
  0
LINE
  8
128
 62
7
  6
CONTINUOUS
 10
193.975665
 20
272.695244
 11
193.839665
 21
272.267244
  0
LINE
  8
128
 62
7
  6
CONTINUOUS
 10
194.105665
 20
273.125244
 11
193.975665
 21
272.695244
  0
LINE
  8
128
 62
7
  6
CONTINUOUS
 10
194.225665
 20
273.557244
 11
194.105665
 21
273.125244
  0
LINE
  8
128
 62
7
  6
CONTINUOUS
 10
194.345665
 20
274.025244
 11
194.225665
 21
273.557244
  0
LINE
  8
128
 62
7
  6
CONTINUOUS
 10
194.457665
 20
274.495244
 11
194.345665
 21
274.025244
  0
LINE
  8
128
 62
7
  6
CONTINUOUS
 10
194.559665
 20
274.967244
 11
194.457665
 21
274.495244
  0
LINE
  8
128
 62
7
  6
CONTINUOUS
 10
194.653665
 20
275.441244
 11
194.559665
 21
274.967244
  0
LINE
  8
128
 62
7
  6
CONTINUOUS
 10
194.737665
 20
275.917244
 11
194.653665
 21
275.441244
  0
LINE
  8
128
 62
7
  6
CONTINUOUS
 10
194.811665
 20
276.395244
 11
194.737665
 21
275.917244
  0
LINE
  8
128
 62
7
  6
CONTINUOUS
 10
194.875665
 20
276.873244
 11
194.811665
 21
276.395244
  0
LINE
  8
128
 62
7
  6
CONTINUOUS
 10
194.931665
 20
277.353244
 11
194.875665
 21
276.873244
  0
LINE
  8
128
 62
7
  6
CONTINUOUS
 10
194.977665
 20
277.833244
 11
194.931665
 21
277.353244
  0
LINE
  8
128
 62
7
  6
CONTINUOUS
 10
195.015665
 20
278.315244
 11
194.977665
 21
277.833244
  0
LINE
  8
128
 62
7
  6
CONTINUOUS
 10
195.039665
 20
278.747244
 11
195.015665
 21
278.315244
  0
LINE
  8
128
 62
7
  6
CONTINUOUS
 10
195.057665
 20
279.179244
 11
195.039665
 21
278.747244
  0
LINE
  8
128
 62
7
  6
CONTINUOUS
 10
195.065665
 20
279.613244
 11
195.057665
 21
279.179244
  0
LINE
  8
128
 62
7
  6
CONTINUOUS
 10
195.067665
 20
280.045244
 11
195.065665
 21
279.613244
  0
LINE
  8
128
 62
7
  6
CONTINUOUS
 10
195.063665
 20
280.477244
 11
195.067665
 21
280.045244
  0
LINE
  8
128
 62
7
  6
CONTINUOUS
 10
195.049665
 20
280.909244
 11
195.063665
 21
280.477244
  0
LINE
  8
128
 62
7
  6
CONTINUOUS
 10
195.027665
 20
281.341244
 11
195.049665
 21
280.909244
  0
LINE
  8
128
 62
7
  6
CONTINUOUS
 10
194.999665
 20
281.773244
 11
195.027665
 21
281.341244
  0
LINE
  8
128
 62
7
  6
CONTINUOUS
 10
194.963665
 20
282.205244
 11
194.999665
 21
281.773244
  0
LINE
  8
128
 62
7
  6
CONTINUOUS
 10
194.919665
 20
282.635244
 11
194.963665
 21
282.205244
  0
LINE
  8
128
 62
7
  6
CONTINUOUS
 10
194.871665
 20
283.035244
 11
194.919665
 21
282.635244
  0
LINE
  8
128
 62
7
  6
CONTINUOUS
 10
194.815665
 20
283.435244
 11
194.871665
 21
283.035244
  0
LINE
  8
128
 62
7
  6
CONTINUOUS
 10
194.755665
 20
283.835244
 11
194.815665
 21
283.435244
  0
LINE
  8
128
 62
7
  6
CONTINUOUS
 10
194.687665
 20
284.233244
 11
194.755665
 21
283.835244
  0
LINE
  8
128
 62
7
  6
CONTINUOUS
 10
194.613665
 20
284.629244
 11
194.687665
 21
284.233244
  0
LINE
  8
128
 62
7
  6
CONTINUOUS
 10
194.531665
 20
285.025244
 11
194.613665
 21
284.629244
  0
LINE
  8
128
 62
7
  6
CONTINUOUS
 10
194.443665
 20
285.419244
 11
194.531665
 21
285.025244
  0
LINE
  8
128
 62
7
  6
CONTINUOUS
 10
194.351665
 20
285.811244
 11
194.443665
 21
285.419244
  0
LINE
  8
128
 62
7
  6
CONTINUOUS
 10
194.249665
 20
286.201244
 11
194.351665
 21
285.811244
  0
LINE
  8
128
 62
7
  6
CONTINUOUS
 10
194.143665
 20
286.591244
 11
194.249665
 21
286.201244
  0
LINE
  8
128
 62
7
  6
CONTINUOUS
 10
194.035665
 20
286.963244
 11
194.143665
 21
286.591244
  0
LINE
  8
128
 62
7
  6
CONTINUOUS
 10
193.919665
 20
287.335244
 11
194.035665
 21
286.963244
  0
LINE
  8
128
 62
7
  6
CONTINUOUS
 10
193.799665
 20
287.703244
 11
193.919665
 21
287.335244
  0
LINE
  8
128
 62
7
  6
CONTINUOUS
 10
193.673665
 20
288.071244
 11
193.799665
 21
287.703244
  0
LINE
  8
128
 62
7
  6
CONTINUOUS
 10
193.541665
 20
288.437244
 11
193.673665
 21
288.071244
  0
LINE
  8
128
 62
7
  6
CONTINUOUS
 10
193.403665
 20
288.799244
 11
193.541665
 21
288.437244
  0
LINE
  8
128
 62
7
  6
CONTINUOUS
 10
193.261665
 20
289.159244
 11
193.403665
 21
288.799244
  0
LINE
  8
128
 62
7
  6
CONTINUOUS
 10
193.111665
 20
289.519244
 11
193.261665
 21
289.159244
  0
LINE
  8
128
 62
7
  6
CONTINUOUS
 10
192.957665
 20
289.875244
 11
193.111665
 21
289.519244
  0
LINE
  8
128
 62
7
  6
CONTINUOUS
 10
192.795665
 20
290.227244
 11
192.957665
 21
289.875244
  0
LINE
  8
128
 62
7
  6
CONTINUOUS
 10
192.675665
 20
290.485244
 11
192.795665
 21
290.227244
  0
LINE
  8
128
 62
7
  6
CONTINUOUS
 10
192.551665
 20
290.741244
 11
192.675665
 21
290.485244
  0
LINE
  8
128
 62
7
  6
CONTINUOUS
 10
192.423665
 20
290.995244
 11
192.551665
 21
290.741244
  0
LINE
  8
128
 62
7
  6
CONTINUOUS
 10
192.293665
 20
291.249244
 11
192.423665
 21
290.995244
  0
LINE
  8
128
 62
7
  6
CONTINUOUS
 10
192.159665
 20
291.501244
 11
192.293665
 21
291.249244
  0
LINE
  8
128
 62
7
  6
CONTINUOUS
 10
192.023665
 20
291.751244
 11
192.159665
 21
291.501244
  0
LINE
  8
128
 62
7
  6
CONTINUOUS
 10
191.885665
 20
291.999244
 11
192.023665
 21
291.751244
  0
LINE
  8
128
 62
7
  6
CONTINUOUS
 10
191.743665
 20
292.245244
 11
191.885665
 21
291.999244
  0
LINE
  8
128
 62
7
  6
CONTINUOUS
 10
191.597665
 20
292.489244
 11
191.743665
 21
292.245244
  0
LINE
  8
128
 62
7
  6
CONTINUOUS
 10
191.449665
 20
292.733244
 11
191.597665
 21
292.489244
  0
LINE
  8
128
 62
7
  6
CONTINUOUS
 10
191.323665
 20
292.937244
 11
191.449665
 21
292.733244
  0
LINE
  8
128
 62
7
  6
CONTINUOUS
 10
191.193665
 20
293.139244
 11
191.323665
 21
292.937244
  0
LINE
  8
128
 62
7
  6
CONTINUOUS
 10
191.063665
 20
293.339244
 11
191.193665
 21
293.139244
  0
LINE
  8
128
 62
7
  6
CONTINUOUS
 10
190.929665
 20
293.539244
 11
191.063665
 21
293.339244
  0
LINE
  8
128
 62
7
  6
CONTINUOUS
 10
190.795665
 20
293.737244
 11
190.929665
 21
293.539244
  0
LINE
  8
128
 62
7
  6
CONTINUOUS
 10
190.657665
 20
293.935244
 11
190.795665
 21
293.737244
  0
LINE
  8
128
 62
7
  6
CONTINUOUS
 10
190.519665
 20
294.129244
 11
190.657665
 21
293.935244
  0
LINE
  8
128
 62
7
  6
CONTINUOUS
 10
190.377665
 20
294.325244
 11
190.519665
 21
294.129244
  0
LINE
  8
128
 62
7
  6
CONTINUOUS
 10
190.235665
 20
294.517244
 11
190.377665
 21
294.325244
  0
LINE
  8
128
 62
7
  6
CONTINUOUS
 10
190.091665
 20
294.709244
 11
190.235665
 21
294.517244
  0
LINE
  8
128
 62
7
  6
CONTINUOUS
 10
189.843665
 20
295.027244
 11
190.091665
 21
294.709244
  0
LINE
  8
128
 62
7
  6
CONTINUOUS
 10
189.593665
 20
295.341244
 11
189.843665
 21
295.027244
  0
LINE
  8
128
 62
7
  6
CONTINUOUS
 10
189.335665
 20
295.651244
 11
189.593665
 21
295.341244
  0
LINE
  8
128
 62
7
  6
CONTINUOUS
 10
189.073665
 20
295.957244
 11
189.335665
 21
295.651244
  0
LINE
  8
128
 62
7
  6
CONTINUOUS
 10
188.805665
 20
296.259244
 11
189.073665
 21
295.957244
  0
LINE
  8
128
 62
7
  6
CONTINUOUS
 10
188.533665
 20
296.555244
 11
188.805665
 21
296.259244
  0
LINE
  8
128
 62
7
  6
CONTINUOUS
 10
188.257665
 20
296.847244
 11
188.533665
 21
296.555244
  0
LINE
  8
128
 62
7
  6
CONTINUOUS
 10
187.975665
 20
297.135244
 11
188.257665
 21
296.847244
  0
LINE
  8
128
 62
7
  6
CONTINUOUS
 10
187.687665
 20
297.419244
 11
187.975665
 21
297.135244
  0
LINE
  8
128
 62
7
  6
CONTINUOUS
 10
187.395665
 20
297.697244
 11
187.687665
 21
297.419244
  0
LINE
  8
128
 62
7
  6
CONTINUOUS
 10
187.137665
 20
297.935244
 11
187.395665
 21
297.697244
  0
LINE
  8
128
 62
7
  6
CONTINUOUS
 10
186.877665
 20
298.169244
 11
187.137665
 21
297.935244
  0
LINE
  8
128
 62
7
  6
CONTINUOUS
 10
186.611665
 20
298.399244
 11
186.877665
 21
298.169244
  0
LINE
  8
128
 62
7
  6
CONTINUOUS
 10
186.343665
 20
298.625244
 11
186.611665
 21
298.399244
  0
LINE
  8
128
 62
7
  6
CONTINUOUS
 10
186.071665
 20
298.847244
 11
186.343665
 21
298.625244
  0
LINE
  8
128
 62
7
  6
CONTINUOUS
 10
185.795665
 20
299.065244
 11
186.071665
 21
298.847244
  0
LINE
  8
128
 62
7
  6
CONTINUOUS
 10
185.517665
 20
299.279244
 11
185.795665
 21
299.065244
  0
LINE
  8
128
 62
7
  6
CONTINUOUS
 10
185.235665
 20
299.489244
 11
185.517665
 21
299.279244
  0
LINE
  8
128
 62
7
  6
CONTINUOUS
 10
184.951665
 20
299.695244
 11
185.235665
 21
299.489244
  0
LINE
  8
128
 62
7
  6
CONTINUOUS
 10
184.663665
 20
299.897244
 11
184.951665
 21
299.695244
  0
LINE
  8
128
 62
7
  6
CONTINUOUS
 10
184.423665
 20
300.059244
 11
184.663665
 21
299.897244
  0
LINE
  8
128
 62
7
  6
CONTINUOUS
 10
184.183665
 20
300.221244
 11
184.423665
 21
300.059244
  0
LINE
  8
128
 62
7
  6
CONTINUOUS
 10
183.939665
 20
300.377244
 11
184.183665
 21
300.221244
  0
LINE
  8
128
 62
7
  6
CONTINUOUS
 10
183.693665
 20
300.531244
 11
183.939665
 21
300.377244
  0
LINE
  8
128
 62
7
  6
CONTINUOUS
 10
183.445665
 20
300.683244
 11
183.693665
 21
300.531244
  0
LINE
  8
128
 62
7
  6
CONTINUOUS
 10
183.197665
 20
300.831244
 11
183.445665
 21
300.683244
  0
LINE
  8
128
 62
7
  6
CONTINUOUS
 10
182.945665
 20
300.977244
 11
183.197665
 21
300.831244
  0
LINE
  8
128
 62
7
  6
CONTINUOUS
 10
182.693665
 20
301.119244
 11
182.945665
 21
300.977244
  0
LINE
  8
128
 62
7
  6
CONTINUOUS
 10
182.437665
 20
301.257244
 11
182.693665
 21
301.119244
  0
LINE
  8
128
 62
7
  6
CONTINUOUS
 10
182.181665
 20
301.393244
 11
182.437665
 21
301.257244
  0
LINE
  8
128
 62
7
  6
CONTINUOUS
 10
181.823665
 20
301.575244
 11
182.181665
 21
301.393244
  0
LINE
  8
128
 62
7
  6
CONTINUOUS
 10
181.461665
 20
301.753244
 11
181.823665
 21
301.575244
  0
LINE
  8
128
 62
7
  6
CONTINUOUS
 10
181.097665
 20
301.923244
 11
181.461665
 21
301.753244
  0
LINE
  8
128
 62
7
  6
CONTINUOUS
 10
180.729665
 20
302.087244
 11
181.097665
 21
301.923244
  0
LINE
  8
128
 62
7
  6
CONTINUOUS
 10
180.359665
 20
302.245244
 11
180.729665
 21
302.087244
  0
LINE
  8
128
 62
7
  6
CONTINUOUS
 10
179.987665
 20
302.397244
 11
180.359665
 21
302.245244
  0
LINE
  8
128
 62
7
  6
CONTINUOUS
 10
179.611665
 20
302.541244
 11
179.987665
 21
302.397244
  0
LINE
  8
128
 62
7
  6
CONTINUOUS
 10
179.233665
 20
302.681244
 11
179.611665
 21
302.541244
  0
LINE
  8
128
 62
7
  6
CONTINUOUS
 10
178.853665
 20
302.813244
 11
179.233665
 21
302.681244
  0
LINE
  8
128
 62
7
  6
CONTINUOUS
 10
178.473665
 20
302.939244
 11
178.853665
 21
302.813244
  0
ARC
  8
128
 62
7
  6
CONTINUOUS
 10
160.411665
 20
300.923244
 40
18.172000
 50
6.366176
 51
6.764588
  0
ARC
  8
128
 62
7
  6
CONTINUOUS
 10
171.567665
 20
300.365244
 40
6.760000
 50
180.000000
 51
0.000000
  0
LINE
  8
128
 62
7
  6
CONTINUOUS
 10
178.327665
 20
302.961244
 11
178.327665
 21
300.365244
  0
ARC
  8
128
 62
7
  6
CONTINUOUS
 10
178.327665
 20
302.483244
 40
0.478000
 50
72.320657
 51
89.995368
  0
LINE
  8
128
 62
7
  6
CONTINUOUS
 10
178.327665
 20
257.365244
 11
178.327665
 21
256.891244
  0
ARC
  8
128
 62
7
  6
CONTINUOUS
 10
171.567665
 20
257.365244
 40
6.760000
 50
0.000000
 51
180.000000
  0
LINE
  8
128
 62
7
  6
CONTINUOUS
 10
164.807665
 20
256.893244
 11
164.807665
 21
257.365244
  0
ARC
  8
128
 62
7
  6
CONTINUOUS
 10
164.807665
 20
302.481244
 40
0.478000
 50
90.027001
 51
107.697209
  0
LINE
  8
128
 62
7
  6
CONTINUOUS
 10
164.807665
 20
300.365244
 11
164.807665
 21
302.959244
  0
LINE
  8
128
 62
7
  6
CONTINUOUS
 10
201.563665
 20
298.257244
 11
201.235665
 21
299.143244
  0
LINE
  8
128
 62
7
  6
CONTINUOUS
 10
201.797665
 20
297.339244
 11
201.563665
 21
298.257244
  0
LINE
  8
128
 62
7
  6
CONTINUOUS
 10
201.931665
 20
296.397244
 11
201.797665
 21
297.339244
  0
LINE
  8
128
 62
7
  6
CONTINUOUS
 10
201.965665
 20
295.441244
 11
201.931665
 21
296.397244
  0
LINE
  8
128
 62
7
  6
CONTINUOUS
 10
201.965665
 20
295.441244
 11
201.563665
 21
272.401244
  0
LINE
  8
128
 62
7
  6
CONTINUOUS
 10
141.571665
 20
272.401244
 11
141.169665
 21
295.441244
  0
LINE
  8
128
 62
7
  6
CONTINUOUS
 10
141.203665
 20
296.397244
 11
141.169665
 21
295.441244
  0
LINE
  8
128
 62
7
  6
CONTINUOUS
 10
141.337665
 20
297.339244
 11
141.203665
 21
296.397244
  0
LINE
  8
128
 62
7
  6
CONTINUOUS
 10
141.569665
 20
298.257244
 11
141.337665
 21
297.339244
  0
LINE
  8
128
 62
7
  6
CONTINUOUS
 10
141.899665
 20
299.143244
 11
141.569665
 21
298.257244
  0
ARC
  8
128
 62
7
  6
CONTINUOUS
 10
150.385665
 20
295.445244
 40
9.256000
 50
135.975193
 51
156.455604
  0
LINE
  8
128
 62
7
  6
CONTINUOUS
 10
143.739665
 20
301.889244
 11
143.741665
 21
301.893244
  0
LINE
  8
128
 62
7
  6
CONTINUOUS
 10
143.735665
 20
301.885244
 11
143.739665
 21
301.889244
  0
LINE
  8
128
 62
7
  6
CONTINUOUS
 10
143.733665
 20
301.883244
 11
143.735665
 21
301.885244
  0
LINE
  8
128
 62
7
  6
CONTINUOUS
 10
143.729665
 20
301.879244
 11
143.733665
 21
301.883244
  0
LINE
  8
128
 62
7
  6
CONTINUOUS
 10
199.401665
 20
301.883244
 11
199.403665
 21
301.879244
  0
LINE
  8
128
 62
7
  6
CONTINUOUS
 10
199.397665
 20
301.885244
 11
199.401665
 21
301.883244
  0
LINE
  8
128
 62
7
  6
CONTINUOUS
 10
199.395665
 20
301.889244
 11
199.397665
 21
301.885244
  0
LINE
  8
128
 62
7
  6
CONTINUOUS
 10
199.391665
 20
301.893244
 11
199.395665
 21
301.889244
  0
ARC
  8
128
 62
7
  6
CONTINUOUS
 10
192.741665
 20
295.441244
 40
9.266000
 50
23.554706
 51
44.014497
  0
LINE
  8
128
 62
7
  6
CONTINUOUS
 10
143.741665
 20
301.893244
 11
146.647665
 21
304.903244
  0
LINE
  8
128
 62
7
  6
CONTINUOUS
 10
196.487665
 20
304.903244
 11
199.391665
 21
301.893244
  0
ARC
  8
128
 62
7
  6
CONTINUOUS
 10
185.939665
 20
294.611244
 40
14.736000
 50
44.294247
 51
90.020614
  0
ARC
  8
128
 62
7
  6
CONTINUOUS
 10
157.195665
 20
294.611244
 40
14.736000
 50
89.979386
 51
135.705753
  0
ARC
  8
128
 62
7
  6
CONTINUOUS
 10
171.567665
 20
278.513244
 40
28.000000
 50
102.791114
 51
102.919221
  0
ARC
  8
128
 62
7
  6
CONTINUOUS
 10
171.567665
 20
278.513244
 40
28.000000
 50
77.081638
 51
77.208886
  0
LINE
  8
128
 62
7
  6
CONTINUOUS
 10
157.199665
 20
309.347244
 11
185.933665
 21
309.347244
  0
CIRCLE
  8
128
 62
7
  6
CONTINUOUS
 10
171.567665
 20
257.013244
 40
4.250000
  0
LINE
  8
128
 62
7
  6
CONTINUOUS
 10
171.567665
 20
254.703244
 11
173.567665
 21
255.857244
  0
LINE
  8
128
 62
7
  6
CONTINUOUS
 10
173.567665
 20
255.857244
 11
173.567665
 21
258.167244
  0
LINE
  8
128
 62
7
  6
CONTINUOUS
 10
173.567665
 20
258.167244
 11
171.567665
 21
259.321244
  0
LINE
  8
128
 62
7
  6
CONTINUOUS
 10
171.567665
 20
259.321244
 11
169.567665
 21
258.167244
  0
LINE
  8
128
 62
7
  6
CONTINUOUS
 10
169.567665
 20
258.167244
 11
169.567665
 21
255.857244
  0
LINE
  8
128
 62
7
  6
CONTINUOUS
 10
169.567665
 20
255.857244
 11
171.567665
 21
254.703244
  0
CIRCLE
  8
128
 62
7
  6
CONTINUOUS
 10
171.567665
 20
300.013244
 40
4.250000
  0
LINE
  8
128
 62
7
  6
CONTINUOUS
 10
171.567665
 20
302.321244
 11
169.567665
 21
301.167244
  0
LINE
  8
128
 62
7
  6
CONTINUOUS
 10
169.567665
 20
298.857244
 11
171.567665
 21
297.703244
  0
LINE
  8
128
 62
7
  6
CONTINUOUS
 10
169.567665
 20
301.167244
 11
169.567665
 21
298.857244
  0
LINE
  8
128
 62
7
  6
CONTINUOUS
 10
171.567665
 20
297.703244
 11
173.567665
 21
298.857244
  0
LINE
  8
128
 62
7
  6
CONTINUOUS
 10
173.567665
 20
301.167244
 11
171.567665
 21
302.321244
  0
LINE
  8
128
 62
7
  6
CONTINUOUS
 10
173.567665
 20
298.857244
 11
173.567665
 21
301.167244
  0
LINE
  8
128
 62
7
  6
CONTINUOUS
 10
201.067665
 20
232.513244
 11
142.067665
 21
232.513244
  0
CIRCLE
  8
128
 62
7
  6
CONTINUOUS
 10
197.651665
 20
241.679244
 40
0.500000
  0
CIRCLE
  8
128
 62
7
  6
CONTINUOUS
 10
173.743665
 20
258.405244
 40
0.500000
  0
CIRCLE
  8
128
 62
7
  6
CONTINUOUS
 10
173.915665
 20
300.213244
 40
0.500000
  0
ARC
  8
128
 62
7
  6
CONTINUOUS
 10
149.717665
 20
295.829244
 40
10.130000
 50
135.000000
 51
180.000000
  0
LINE
  8
128
 62
7
  6
CONTINUOUS
 10
145.585665
 20
306.025244
 11
142.553665
 21
302.993244
  0
ARC
  8
128
 62
7
  6
CONTINUOUS
 10
156.991665
 20
294.619244
 40
16.130000
 50
90.000000
 51
135.000000
  0
LINE
  8
128
 62
7
  6
CONTINUOUS
 10
186.141665
 20
310.749244
 11
156.991665
 21
310.749244
  0
ARC
  8
128
 62
7
  6
CONTINUOUS
 10
186.141665
 20
294.619244
 40
16.130000
 50
45.000000
 51
90.000000
  0
LINE
  8
128
 62
7
  6
CONTINUOUS
 10
197.547665
 20
306.025244
 11
200.579665
 21
302.993244
  0
ARC
  8
128
 62
7
  6
CONTINUOUS
 10
193.417665
 20
295.829244
 40
10.130000
 50
-0.000000
 51
45.000000
  0
LINE
  8
128
 62
7
  6
CONTINUOUS
 10
203.547665
 20
295.829244
 11
203.547665
 21
256.119244
  0
ARC
  8
128
 62
7
  6
CONTINUOUS
 10
182.417665
 20
256.119244
 40
21.130000
 50
-25.031207
 51
-0.000000
  0
ARC
  8
128
 62
7
  6
CONTINUOUS
 10
160.717665
 20
256.119244
 40
21.130000
 50
180.000000
 51
-154.968793
  0
LINE
  8
128
 62
7
  6
CONTINUOUS
 10
139.587665
 20
295.829244
 11
139.587665
 21
256.119244
  0
LINE
  8
128
 62
7
  6
DASHDOT
 10
210.513665
 20
278.513244
 11
133.397665
 21
278.513244
  0
CIRCLE
  8
128
 62
7
  6
CONTINUOUS
 10
199.111665
 20
191.381244
 40
0.500000
  0
CIRCLE
  8
128
 62
7
  6
CONTINUOUS
 10
195.023665
 20
169.495244
 40
0.500000
  0
CIRCLE
  8
128
 62
7
  6
CONTINUOUS
 10
185.643665
 20
160.835244
 40
0.500000
  0
CIRCLE
  8
128
 62
7
  6
CONTINUOUS
 10
184.441665
 20
176.469244
 40
0.500000
  0
CIRCLE
  8
128
 62
7
  6
CONTINUOUS
 10
199.111665
 20
151.381244
 40
0.500000
  0
CIRCLE
  8
128
 62
7
  6
CONTINUOUS
 10
192.337665
 20
146.751244
 40
0.500000
  0
LINE
  8
128
 62
7
  6
CONTINUOUS
 10
201.067665
 20
192.513244
 11
142.067665
 21
192.513244
  0
LINE
  8
128
 62
7
  6
CONTINUOUS
 10
201.567665
 20
154.863244
 11
141.569665
 21
154.863244
  0
ARC
  8
128
 62
7
  6
CONTINUOUS
 10
139.117665
 20
157.363244
 40
3.500000
 50
-45.584691
 51
42.491934
  0
ARC
  8
128
 62
7
  6
CONTINUOUS
 10
137.129665
 20
176.113244
 40
5.500000
 50
-34.629559
 51
34.629559
  0
ARC
  8
128
 62
7
  6
CONTINUOUS
 10
137.129665
 20
169.113244
 40
5.500000
 50
-34.629559
 51
34.629559
  0
ARC
  8
128
 62
7
  6
CONTINUOUS
 10
139.117665
 20
162.863244
 40
3.500000
 50
-42.491934
 51
42.491934
  0
ARC
  8
128
 62
7
  6
CONTINUOUS
 10
139.117665
 20
182.363244
 40
3.500000
 50
-42.491934
 51
42.491934
  0
ARC
  8
128
 62
7
  6
CONTINUOUS
 10
139.117665
 20
187.863244
 40
3.500000
 50
-42.491934
 51
45.584692
  0
LINE
  8
128
 62
7
  6
CONTINUOUS
 10
141.567665
 20
190.363244
 11
141.567665
 21
192.013244
  0
LINE
  8
128
 62
7
  6
CONTINUOUS
 10
141.567665
 20
153.013244
 11
141.567665
 21
154.863244
  0
LINE
  8
128
 62
7
  6
CONTINUOUS
 10
201.567665
 20
160.113244
 11
141.569665
 21
160.113244
  0
LINE
  8
128
 62
7
  6
CONTINUOUS
 10
201.567665
 20
165.569244
 11
141.567665
 21
165.569244
  0
LINE
  8
128
 62
7
  6
CONTINUOUS
 10
201.567665
 20
172.613244
 11
141.567665
 21
172.613244
  0
LINE
  8
128
 62
7
  6
CONTINUOUS
 10
201.567665
 20
179.655244
 11
141.567665
 21
179.655244
  0
LINE
  8
128
 62
7
  6
CONTINUOUS
 10
201.567665
 20
185.113244
 11
141.567665
 21
185.113244
  0
LINE
  8
128
 62
7
  6
CONTINUOUS
 10
201.567665
 20
190.363244
 11
141.567665
 21
190.363244
  0
LINE
  8
128
 62
7
  6
CONTINUOUS
 10
141.567665
 20
185.065244
 11
141.567665
 21
185.161244
  0
LINE
  8
128
 62
7
  6
CONTINUOUS
 10
141.567665
 20
160.161244
 11
141.567665
 21
160.065244
  0
LINE
  8
128
 62
7
  6
CONTINUOUS
 10
141.567665
 20
165.565244
 11
141.567665
 21
165.703244
  0
LINE
  8
128
 62
7
  6
CONTINUOUS
 10
141.567665
 20
172.521244
 11
141.567665
 21
172.703244
  0
LINE
  8
128
 62
7
  6
CONTINUOUS
 10
141.567665
 20
179.521244
 11
141.567665
 21
179.661244
  0
ARC
  8
128
 62
7
  6
CONTINUOUS
 10
142.067665
 20
160.065244
 40
0.500000
 50
180.000000
 51
-137.508066
  0
ARC
  8
128
 62
7
  6
CONTINUOUS
 10
142.067665
 20
160.161244
 40
0.500000
 50
137.508066
 51
180.000000
  0
ARC
  8
128
 62
7
  6
CONTINUOUS
 10
142.067665
 20
165.565244
 40
0.500000
 50
180.000000
 51
-137.508066
  0
ARC
  8
128
 62
7
  6
CONTINUOUS
 10
142.067665
 20
165.703244
 40
0.500000
 50
145.370441
 51
180.000000
  0
ARC
  8
128
 62
7
  6
CONTINUOUS
 10
142.067665
 20
172.521244
 40
0.500000
 50
180.000000
 51
-145.370441
  0
ARC
  8
128
 62
7
  6
CONTINUOUS
 10
142.067665
 20
172.703244
 40
0.500000
 50
145.370441
 51
180.000000
  0
ARC
  8
128
 62
7
  6
CONTINUOUS
 10
142.067665
 20
179.521244
 40
0.500000
 50
180.000000
 51
-145.370441
  0
ARC
  8
128
 62
7
  6
CONTINUOUS
 10
142.067665
 20
179.661244
 40
0.500000
 50
137.508066
 51
180.000000
  0
ARC
  8
128
 62
7
  6
CONTINUOUS
 10
142.067665
 20
185.065244
 40
0.500000
 50
180.000000
 51
-137.508066
  0
ARC
  8
128
 62
7
  6
CONTINUOUS
 10
142.067665
 20
185.161244
 40
0.500000
 50
137.508066
 51
180.000000
  0
LINE
  8
128
 62
7
  6
CONTINUOUS
 10
141.567665
 20
192.013244
 11
142.067665
 21
192.513244
  0
LINE
  8
128
 62
7
  6
CONTINUOUS
 10
201.567665
 20
192.013244
 11
201.067665
 21
192.513244
  0
ARC
  8
128
 62
7
  6
CONTINUOUS
 10
204.017665
 20
187.863244
 40
3.500000
 50
134.415308
 51
-137.508066
  0
ARC
  8
128
 62
7
  6
CONTINUOUS
 10
204.017665
 20
182.363244
 40
3.500000
 50
137.508066
 51
-137.508066
  0
ARC
  8
128
 62
7
  6
CONTINUOUS
 10
204.017665
 20
162.863244
 40
3.500000
 50
137.508066
 51
-137.508066
  0
ARC
  8
128
 62
7
  6
CONTINUOUS
 10
206.003665
 20
169.113244
 40
5.500000
 50
145.370441
 51
-145.370441
  0
ARC
  8
128
 62
7
  6
CONTINUOUS
 10
206.003665
 20
176.113244
 40
5.500000
 50
145.370441
 51
-145.370441
  0
ARC
  8
128
 62
7
  6
CONTINUOUS
 10
204.017665
 20
157.363244
 40
3.500000
 50
137.508066
 51
-134.415309
  0
ARC
  8
128
 62
7
  6
CONTINUOUS
 10
201.067665
 20
185.161244
 40
0.500000
 50
-0.000000
 51
42.491934
  0
ARC
  8
128
 62
7
  6
CONTINUOUS
 10
201.067665
 20
185.065244
 40
0.500000
 50
-42.491934
 51
-0.000000
  0
ARC
  8
128
 62
7
  6
CONTINUOUS
 10
201.067665
 20
179.661244
 40
0.500000
 50
-0.000000
 51
42.491934
  0
ARC
  8
128
 62
7
  6
CONTINUOUS
 10
201.067665
 20
165.565244
 40
0.500000
 50
-42.491934
 51
-0.000000
  0
ARC
  8
128
 62
7
  6
CONTINUOUS
 10
201.067665
 20
160.161244
 40
0.500000
 50
-0.000000
 51
42.491934
  0
ARC
  8
128
 62
7
  6
CONTINUOUS
 10
201.067665
 20
160.065244
 40
0.500000
 50
-42.491934
 51
-0.000000
  0
LINE
  8
128
 62
7
  6
CONTINUOUS
 10
201.567665
 20
190.363244
 11
201.567665
 21
192.013244
  0
LINE
  8
128
 62
7
  6
CONTINUOUS
 10
201.567665
 20
179.521244
 11
201.567665
 21
179.661244
  0
LINE
  8
128
 62
7
  6
CONTINUOUS
 10
201.567665
 20
172.521244
 11
201.567665
 21
172.703244
  0
LINE
  8
128
 62
7
  6
CONTINUOUS
 10
201.567665
 20
165.565244
 11
201.567665
 21
165.703244
  0
LINE
  8
128
 62
7
  6
CONTINUOUS
 10
201.567665
 20
160.161244
 11
201.567665
 21
160.065244
  0
LINE
  8
128
 62
7
  6
CONTINUOUS
 10
201.567665
 20
185.065244
 11
201.567665
 21
185.161244
  0
ARC
  8
128
 62
7
  6
CONTINUOUS
 10
201.067665
 20
165.703244
 40
0.500000
 50
-0.000000
 51
34.629559
  0
ARC
  8
128
 62
7
  6
CONTINUOUS
 10
201.067665
 20
172.521244
 40
0.500000
 50
-34.629559
 51
-0.000000
  0
ARC
  8
128
 62
7
  6
CONTINUOUS
 10
201.067665
 20
172.703244
 40
0.500000
 50
-0.000000
 51
34.629559
  0
ARC
  8
128
 62
7
  6
CONTINUOUS
 10
201.067665
 20
179.521244
 40
0.500000
 50
-34.629559
 51
-0.000000
  0
LINE
  8
128
 62
7
  6
CONTINUOUS
 10
201.567665
 20
153.013244
 11
201.567665
 21
154.863244
  0
LINE
  8
128
 62
7
  6
CONTINUOUS
 10
201.067665
 20
152.513244
 11
201.567665
 21
153.013244
  0
LINE
  8
128
 62
7
  6
CONTINUOUS
 10
142.067665
 20
152.513244
 11
141.567665
 21
153.013244
  0
LINE
  8
128
 62
7
  6
HIDDEN
 10
150.617665
 20
182.313244
 11
167.817665
 21
165.113244
  0
LINE
  8
128
 62
7
  6
CONTINUOUS
 10
174.425665
 20
154.513244
 11
174.425665
 21
187.513244
  0
LINE
  8
128
 62
7
  6
CONTINUOUS
 10
197.903665
 20
187.513244
 11
197.327665
 21
154.513244
  0
LINE
  8
128
 62
7
  6
CONTINUOUS
 10
177.129665
 20
154.513244
 11
177.129665
 21
187.513244
  0
LINE
  8
128
 62
7
  6
CONTINUOUS
 10
179.835665
 20
154.513244
 11
179.835665
 21
187.513244
  0
LINE
  8
128
 62
7
  6
CONTINUOUS
 10
182.449665
 20
154.513244
 11
182.449665
 21
187.513244
  0
LINE
  8
128
 62
7
  6
CONTINUOUS
 10
184.945665
 20
154.513244
 11
184.945665
 21
187.513244
  0
LINE
  8
128
 62
7
  6
CONTINUOUS
 10
187.295665
 20
154.513244
 11
187.295665
 21
187.513244
  0
LINE
  8
128
 62
7
  6
CONTINUOUS
 10
189.471665
 20
154.513244
 11
189.471665
 21
187.513244
  0
LINE
  8
128
 62
7
  6
CONTINUOUS
 10
191.451665
 20
154.513244
 11
191.451665
 21
187.513244
  0
LINE
  8
128
 62
7
  6
CONTINUOUS
 10
193.215665
 20
154.513244
 11
193.215665
 21
187.513244
  0
LINE
  8
128
 62
7
  6
CONTINUOUS
 10
194.739665
 20
154.513244
 11
194.739665
 21
187.513244
  0
LINE
  8
128
 62
7
  6
CONTINUOUS
 10
196.011665
 20
154.513244
 11
196.011665
 21
187.513244
  0
LINE
  8
128
 62
7
  6
CONTINUOUS
 10
197.015665
 20
154.513244
 11
197.015665
 21
187.513244
  0
LINE
  8
128
 62
7
  6
HIDDEN
 10
192.617665
 20
182.313244
 11
196.517665
 21
186.213244
  0
LINE
  8
128
 62
7
  6
HIDDEN
 10
192.517665
 20
182.313244
 11
175.317665
 21
165.113244
  0
LINE
  8
128
 62
7
  6
CONTINUOUS
 10
147.123665
 20
154.513244
 11
147.123665
 21
187.513244
  0
LINE
  8
128
 62
7
  6
CONTINUOUS
 10
146.119665
 20
154.513244
 11
146.119665
 21
187.513244
  0
LINE
  8
128
 62
7
  6
CONTINUOUS
 10
168.709665
 20
154.513244
 11
168.709665
 21
187.513244
  0
LINE
  8
128
 62
7
  6
HIDDEN
 10
150.517665
 20
182.313244
 11
146.617665
 21
186.213244
  0
LINE
  8
128
 62
7
  6
CONTINUOUS
 10
166.003665
 20
154.513244
 11
166.003665
 21
187.513244
  0
LINE
  8
128
 62
7
  6
CONTINUOUS
 10
163.299665
 20
154.513244
 11
163.299665
 21
187.513244
  0
LINE
  8
128
 62
7
  6
CONTINUOUS
 10
160.683665
 20
154.513244
 11
160.683665
 21
187.513244
  0
LINE
  8
128
 62
7
  6
CONTINUOUS
 10
158.187665
 20
154.513244
 11
158.187665
 21
187.513244
  0
LINE
  8
128
 62
7
  6
CONTINUOUS
 10
155.839665
 20
154.513244
 11
155.839665
 21
187.513244
  0
LINE
  8
128
 62
7
  6
CONTINUOUS
 10
153.663665
 20
154.513244
 11
153.663665
 21
187.513244
  0
LINE
  8
128
 62
7
  6
CONTINUOUS
 10
151.681665
 20
154.513244
 11
151.681665
 21
187.513244
  0
LINE
  8
128
 62
7
  6
CONTINUOUS
 10
149.919665
 20
154.513244
 11
149.919665
 21
187.513244
  0
LINE
  8
128
 62
7
  6
CONTINUOUS
 10
148.393665
 20
154.513244
 11
148.393665
 21
187.513244
  0
LINE
  8
128
 62
7
  6
CONTINUOUS
 10
145.231665
 20
187.513244
 11
145.807665
 21
154.513244
  0
LINE
  8
128
 62
7
  6
HIDDEN
 10
146.617665
 20
186.213244
 11
196.517665
 21
186.213244
  0
LINE
  8
128
 62
7
  6
HIDDEN
 10
144.317665
 20
191.013244
 11
198.817665
 21
191.013244
  0
ARC
  8
128
 62
7
  6
HIDDEN
 10
144.317665
 20
191.763244
 40
0.750000
 50
90.000000
 51
-90.000000
  0
ARC
  8
128
 62
7
  6
HIDDEN
 10
198.817665
 20
191.763244
 40
0.750000
 50
-90.000000
 51
90.000000
  0
LINE
  8
128
 62
7
  6
HIDDEN
 10
174.165665
 20
154.113244
 11
174.165665
 21
155.113244
  0
LINE
  8
128
 62
7
  6
HIDDEN
 10
166.699665
 20
154.113244
 11
166.699665
 21
155.113244
  0
LINE
  8
128
 62
7
  6
HIDDEN
 10
165.541665
 20
154.113244
 11
165.541665
 21
155.113244
  0
LINE
  8
128
 62
7
  6
HIDDEN
 10
166.949665
 20
155.113244
 11
166.949665
 21
161.613244
  0
LINE
  8
128
 62
7
  6
HIDDEN
 10
174.415665
 20
155.113244
 11
174.415665
 21
161.613244
  0
LINE
  8
128
 62
7
  6
HIDDEN
 10
147.067665
 20
154.113244
 11
196.067665
 21
154.113244
  0
LINE
  8
128
 62
7
  6
HIDDEN
 10
156.735665
 20
155.113244
 11
186.397665
 21
155.113244
  0
LINE
  8
128
 62
7
  6
HIDDEN
 10
186.147665
 20
155.113244
 11
186.147665
 21
161.613244
  0
LINE
  8
128
 62
7
  6
HIDDEN
 10
184.839665
 20
155.113244
 11
184.839665
 21
161.613244
  0
ARC
  8
128
 62
7
  6
HIDDEN
 10
182.339665
 20
161.613244
 40
2.500000
 50
-0.000000
 51
180.000000
  0
ARC
  8
128
 62
7
  6
HIDDEN
 10
162.791665
 20
161.613244
 40
2.500000
 50
0.000000
 51
180.000000
  0
LINE
  8
128
 62
7
  6
HIDDEN
 10
196.067665
 20
152.513244
 11
196.067665
 21
154.113244
  0
LINE
  8
128
 62
7
  6
HIDDEN
 10
185.089665
 20
154.113244
 11
185.089665
 21
155.113244
  0
LINE
  8
128
 62
7
  6
HIDDEN
 10
179.665665
 20
154.113244
 11
179.665665
 21
155.113244
  0
LINE
  8
128
 62
7
  6
HIDDEN
 10
186.397665
 20
154.113244
 11
186.397665
 21
155.113244
  0
ARC
  8
128
 62
7
  6
HIDDEN
 10
176.915665
 20
161.613244
 40
2.500000
 50
0.000000
 51
180.000000
  0
ARC
  8
128
 62
7
  6
HIDDEN
 10
169.449665
 20
161.613244
 40
2.500000
 50
0.000000
 51
180.000000
  0
LINE
  8
128
 62
7
  6
HIDDEN
 10
179.839665
 20
155.113244
 11
179.839665
 21
161.613244
  0
LINE
  8
128
 62
7
  6
HIDDEN
 10
179.415665
 20
155.113244
 11
179.415665
 21
161.613244
  0
ARC
  8
128
 62
7
  6
HIDDEN
 10
183.647665
 20
161.613244
 40
2.500000
 50
-0.000000
 51
105.180573
  0
LINE
  8
128
 62
7
  6
HIDDEN
 10
156.735665
 20
154.113244
 11
156.735665
 21
155.113244
  0
LINE
  8
128
 62
7
  6
HIDDEN
 10
160.041665
 20
154.113244
 11
160.041665
 21
155.113244
  0
ARC
  8
128
 62
7
  6
HIDDEN
 10
159.485665
 20
161.613244
 40
2.500000
 50
48.618854
 51
180.000000
  0
LINE
  8
128
 62
7
  6
HIDDEN
 10
156.985665
 20
155.113244
 11
156.985665
 21
161.613244
  0
LINE
  8
128
 62
7
  6
HIDDEN
 10
160.291665
 20
155.113244
 11
160.291665
 21
161.613244
  0
LINE
  8
128
 62
7
  6
HIDDEN
 10
165.291665
 20
155.113244
 11
165.291665
 21
161.613244
  0
LINE
  8
128
 62
7
  6
HIDDEN
 10
147.067665
 20
152.513244
 11
147.067665
 21
154.113244
  0
LINE
  8
128
 62
7
  6
HIDDEN
 10
167.817665
 20
165.113244
 11
175.317665
 21
165.113244
  0
LINE
  8
128
 62
7
  6
HIDDEN
 10
167.817665
 20
163.997244
 11
167.817665
 21
165.113244
  0
LINE
  8
128
 62
7
  6
HIDDEN
 10
175.317665
 20
163.997244
 11
175.317665
 21
165.113244
  0
ARC
  8
128
 62
7
  6
CONTINUOUS
 10
195.449665
 20
148.867244
 40
6.000000
 50
-74.953747
 51
-1.000003
  0
ARC
  8
128
 62
7
  6
CONTINUOUS
 10
147.683665
 20
148.867244
 40
6.000000
 50
-179.000000
 51
-105.046255
  0
ARC
  8
128
 62
7
  6
CONTINUOUS
 10
171.567665
 20
237.713244
 40
98.000000
 50
-105.046253
 51
-74.953747
  0
LINE
  8
128
 62
7
  6
CONTINUOUS
 10
201.557665
 20
152.013244
 11
201.449665
 21
148.761244
  0
LINE
  8
128
 62
7
  6
CONTINUOUS
 10
201.557665
 20
152.013244
 11
201.075665
 21
152.513244
  0
LINE
  8
128
 62
7
  6
CONTINUOUS
 10
141.575665
 20
152.013244
 11
141.685665
 21
148.761244
  0
LINE
  8
128
 62
7
  6
CONTINUOUS
 10
141.575665
 20
152.013244
 11
142.059665
 21
152.513244
  0
LINE
  8
128
 62
7
  6
CONTINUOUS
 10
201.075665
 20
152.513244
 11
142.059665
 21
152.513244
  0
LINE
  8
16
 62
7
  6
CONTINUOUS
 10
171.567665
 20
272.939576
 11
171.567665
 21
284.267377
  0
DIMENSION
  8
1
 62
7
  6
CONTINUOUS
  2
*D1
 10
229.813899
 20
310.749244
 11
229.813899
 21
271.631244
 70
     0
  1
７８．１
 13
186.641665
 23
310.749244
 14
199.317665
 24
232.513244
 50
-90.000000
  0
DIMENSION
  8
1
 62
7
  6
CONTINUOUS
  2
*D2
 10
229.813899
 20
232.513244
 11
229.813899
 21
212.513244
 70
     0
  1
40
 13
201.567665
 23
232.513244
 14
201.567665
 24
192.513244
 50
-90.000000
  0
DIMENSION
  8
1
 62
7
  6
CONTINUOUS
  2
*D3
 10
229.813899
 20
192.513244
 11
229.813899
 21
172.513244
 70
     0
  1
40
 13
201.567665
 23
192.513244
 14
201.567665
 24
152.513244
 50
-90.000000
  0
DIMENSION
  8
1
 62
7
  6
CONTINUOUS
  2
*D4
 10
229.813899
 20
152.513244
 11
229.813899
 21
146.113244
 70
     0
  1
12.8
 13
201.567665
 23
152.513244
 14
172.067665
 24
139.713244
 50
-90.000000
  0
DIMENSION
  8
1
 62
7
  6
CONTINUOUS
  2
*D5
 10
240.267249
 20
139.713244
 11
240.267249
 21
225.231244
 70
     0
  1
171.9
 13
172.567665
 23
139.713244
 14
186.641665
 24
310.749244
 50
90.000000
  0
DIMENSION
  8
1
 62
7
  6
CONTINUOUS
  2
*D6
 10
201.557665
 20
126.921198
 11
171.554529
 21
126.921198
 70
     0
  1
60φ
 13
201.557665
 23
151.513244
 14
141.551394
 24
148.398488
 50
180.000000
  0
TEXT
  8
1
 62
7
  6
CONTINUOUS
 10
264.231081
 20
29.165502
 40
4.635163
 41
0.500000
  1
'03.09.18
  7
KANJI
 50
0.171167
 51
0.000000
  0
TEXT
  8
1
 62
7
  6
CONTINUOUS
 10
304.338757
 20
29.287261
 40
4.635163
 41
0.500000
  1
'03.09.18
  7
KANJI
 50
0.180534
 51
0.000000
  0
TEXT
  8
1
 62
7
  6
CONTINUOUS
 10
343.367806
 20
29.173797
 40
4.635163
 41
0.500000
  1
'03.09.18
  7
KANJI
 50
-0.160586
 51
0.000000
  0
LINE
  8
128
 62
7
  6
CONTINUOUS
 10
369.157099
 20
228.513244
 11
342.407019
 21
228.513244
  0
LINE
  8
128
 62
7
  6
CONTINUOUS
 10
342.157099
 20
318.513244
 11
369.157099
 21
318.513244
  0
LINE
  8
128
 62
7
  6
CONTINUOUS
 10
394.641099
 20
295.441244
 11
387.353099
 21
304.903244
  0
LINE
  8
128
 62
7
  6
CONTINUOUS
 10
373.157099
 20
310.749244
 11
373.157099
 21
234.989244
  0
LINE
  8
128
 62
7
  6
CONTINUOUS
 10
373.157099
 20
310.749244
 11
369.157099
 21
310.749244
  0
LINE
  8
128
 62
7
  6
CONTINUOUS
 10
373.157099
 20
234.989244
 11
369.157099
 21
234.989244
  0
LINE
  8
128
 62
7
  6
CONTINUOUS
 10
387.657099
 20
232.513244
 11
387.157099
 21
233.013244
  0
CIRCLE
  8
128
 62
7
  6
CONTINUOUS
 10
370.091099
 20
242.235244
 40
0.500000
  0
LINE
  8
128
 62
7
  6
CONTINUOUS
 10
446.657099
 20
232.513244
 11
387.657099
 21
232.513244
  0
LINE
  8
128
 62
7
  6
CONTINUOUS
 10
391.239099
 20
235.791244
 11
391.045099
 21
235.783244
  0
LINE
  8
128
 62
7
  6
CONTINUOUS
 10
391.435099
 20
235.801244
 11
391.239099
 21
235.791244
  0
LINE
  8
128
 62
7
  6
CONTINUOUS
 10
391.629099
 20
235.813244
 11
391.435099
 21
235.801244
  0
LINE
  8
128
 62
7
  6
CONTINUOUS
 10
391.823099
 20
235.829244
 11
391.629099
 21
235.813244
  0
LINE
  8
128
 62
7
  6
CONTINUOUS
 10
392.019099
 20
235.847244
 11
391.823099
 21
235.829244
  0
LINE
  8
128
 62
7
  6
CONTINUOUS
 10
392.213099
 20
235.867244
 11
392.019099
 21
235.847244
  0
LINE
  8
128
 62
7
  6
CONTINUOUS
 10
392.407099
 20
235.891244
 11
392.213099
 21
235.867244
  0
LINE
  8
128
 62
7
  6
CONTINUOUS
 10
392.599099
 20
235.917244
 11
392.407099
 21
235.891244
  0
LINE
  8
128
 62
7
  6
CONTINUOUS
 10
392.793099
 20
235.945244
 11
392.599099
 21
235.917244
  0
LINE
  8
128
 62
7
  6
CONTINUOUS
 10
392.985099
 20
235.977244
 11
392.793099
 21
235.945244
  0
LINE
  8
128
 62
7
  6
CONTINUOUS
 10
393.215099
 20
236.019244
 11
392.985099
 21
235.977244
  0
LINE
  8
128
 62
7
  6
CONTINUOUS
 10
393.443099
 20
236.067244
 11
393.215099
 21
236.019244
  0
LINE
  8
128
 62
7
  6
CONTINUOUS
 10
393.669099
 20
236.117244
 11
393.443099
 21
236.067244
  0
LINE
  8
128
 62
7
  6
CONTINUOUS
 10
393.895099
 20
236.171244
 11
393.669099
 21
236.117244
  0
LINE
  8
128
 62
7
  6
CONTINUOUS
 10
394.121099
 20
236.227244
 11
393.895099
 21
236.171244
  0
LINE
  8
128
 62
7
  6
CONTINUOUS
 10
394.347099
 20
236.287244
 11
394.121099
 21
236.227244
  0
LINE
  8
128
 62
7
  6
CONTINUOUS
 10
394.571099
 20
236.349244
 11
394.347099
 21
236.287244
  0
LINE
  8
128
 62
7
  6
CONTINUOUS
 10
394.795099
 20
236.415244
 11
394.571099
 21
236.349244
  0
LINE
  8
128
 62
7
  6
CONTINUOUS
 10
395.019099
 20
236.481244
 11
394.795099
 21
236.415244
  0
LINE
  8
128
 62
7
  6
CONTINUOUS
 10
395.241099
 20
236.549244
 11
395.019099
 21
236.481244
  0
LINE
  8
128
 62
7
  6
CONTINUOUS
 10
395.499099
 20
236.629244
 11
395.241099
 21
236.549244
  0
LINE
  8
128
 62
7
  6
CONTINUOUS
 10
395.757099
 20
236.711244
 11
395.499099
 21
236.629244
  0
LINE
  8
128
 62
7
  6
CONTINUOUS
 10
396.015099
 20
236.795244
 11
395.757099
 21
236.711244
  0
LINE
  8
128
 62
7
  6
CONTINUOUS
 10
396.273099
 20
236.879244
 11
396.015099
 21
236.795244
  0
LINE
  8
128
 62
7
  6
CONTINUOUS
 10
396.529099
 20
236.967244
 11
396.273099
 21
236.879244
  0
LINE
  8
128
 62
7
  6
CONTINUOUS
 10
396.785099
 20
237.055244
 11
396.529099
 21
236.967244
  0
LINE
  8
128
 62
7
  6
CONTINUOUS
 10
397.039099
 20
237.143244
 11
396.785099
 21
237.055244
  0
LINE
  8
128
 62
7
  6
CONTINUOUS
 10
397.295099
 20
237.233244
 11
397.039099
 21
237.143244
  0
LINE
  8
128
 62
7
  6
CONTINUOUS
 10
397.549099
 20
237.325244
 11
397.295099
 21
237.233244
  0
LINE
  8
128
 62
7
  6
CONTINUOUS
 10
397.803099
 20
237.419244
 11
397.549099
 21
237.325244
  0
LINE
  8
128
 62
7
  6
CONTINUOUS
 10
398.079099
 20
237.519244
 11
397.803099
 21
237.419244
  0
LINE
  8
128
 62
7
  6
CONTINUOUS
 10
398.353099
 20
237.623244
 11
398.079099
 21
237.519244
  0
LINE
  8
128
 62
7
  6
CONTINUOUS
 10
398.627099
 20
237.727244
 11
398.353099
 21
237.623244
  0
LINE
  8
128
 62
7
  6
CONTINUOUS
 10
398.901099
 20
237.831244
 11
398.627099
 21
237.727244
  0
LINE
  8
128
 62
7
  6
CONTINUOUS
 10
399.175099
 20
237.937244
 11
398.901099
 21
237.831244
  0
LINE
  8
128
 62
7
  6
CONTINUOUS
 10
399.447099
 20
238.043244
 11
399.175099
 21
237.937244
  0
LINE
  8
128
 62
7
  6
CONTINUOUS
 10
399.721099
 20
238.151244
 11
399.447099
 21
238.043244
  0
LINE
  8
128
 62
7
  6
CONTINUOUS
 10
399.993099
 20
238.259244
 11
399.721099
 21
238.151244
  0
LINE
  8
128
 62
7
  6
CONTINUOUS
 10
400.265099
 20
238.369244
 11
399.993099
 21
238.259244
  0
LINE
  8
128
 62
7
  6
CONTINUOUS
 10
400.537099
 20
238.477244
 11
400.265099
 21
238.369244
  0
LINE
  8
128
 62
7
  6
CONTINUOUS
 10
400.831099
 20
238.597244
 11
400.537099
 21
238.477244
  0
LINE
  8
128
 62
7
  6
CONTINUOUS
 10
401.125099
 20
238.715244
 11
400.831099
 21
238.597244
  0
LINE
  8
128
 62
7
  6
CONTINUOUS
 10
401.417099
 20
238.835244
 11
401.125099
 21
238.715244
  0
LINE
  8
128
 62
7
  6
CONTINUOUS
 10
401.711099
 20
238.955244
 11
401.417099
 21
238.835244
  0
LINE
  8
128
 62
7
  6
CONTINUOUS
 10
402.003099
 20
239.077244
 11
401.711099
 21
238.955244
  0
LINE
  8
128
 62
7
  6
CONTINUOUS
 10
402.297099
 20
239.197244
 11
402.003099
 21
239.077244
  0
LINE
  8
128
 62
7
  6
CONTINUOUS
 10
402.589099
 20
239.319244
 11
402.297099
 21
239.197244
  0
LINE
  8
128
 62
7
  6
CONTINUOUS
 10
402.881099
 20
239.441244
 11
402.589099
 21
239.319244
  0
LINE
  8
128
 62
7
  6
CONTINUOUS
 10
403.175099
 20
239.563244
 11
402.881099
 21
239.441244
  0
LINE
  8
128
 62
7
  6
CONTINUOUS
 10
403.467099
 20
239.685244
 11
403.175099
 21
239.563244
  0
LINE
  8
128
 62
7
  6
CONTINUOUS
 10
403.785099
 20
239.817244
 11
403.467099
 21
239.685244
  0
LINE
  8
128
 62
7
  6
CONTINUOUS
 10
404.103099
 20
239.951244
 11
403.785099
 21
239.817244
  0
LINE
  8
128
 62
7
  6
CONTINUOUS
 10
404.419099
 20
240.085244
 11
404.103099
 21
239.951244
  0
LINE
  8
128
 62
7
  6
CONTINUOUS
 10
404.737099
 20
240.217244
 11
404.419099
 21
240.085244
  0
LINE
  8
128
 62
7
  6
CONTINUOUS
 10
405.055099
 20
240.351244
 11
404.737099
 21
240.217244
  0
LINE
  8
128
 62
7
  6
CONTINUOUS
 10
405.371099
 20
240.485244
 11
405.055099
 21
240.351244
  0
LINE
  8
128
 62
7
  6
CONTINUOUS
 10
405.689099
 20
240.619244
 11
405.371099
 21
240.485244
  0
LINE
  8
128
 62
7
  6
CONTINUOUS
 10
406.007099
 20
240.753244
 11
405.689099
 21
240.619244
  0
LINE
  8
128
 62
7
  6
CONTINUOUS
 10
406.325099
 20
240.887244
 11
406.007099
 21
240.753244
  0
LINE
  8
128
 62
7
  6
CONTINUOUS
 10
406.641099
 20
241.019244
 11
406.325099
 21
240.887244
  0
LINE
  8
128
 62
7
  6
CONTINUOUS
 10
407.075099
 20
241.201244
 11
406.641099
 21
241.019244
  0
LINE
  8
128
 62
7
  6
CONTINUOUS
 10
407.507099
 20
241.383244
 11
407.075099
 21
241.201244
  0
LINE
  8
128
 62
7
  6
CONTINUOUS
 10
407.939099
 20
241.563244
 11
407.507099
 21
241.383244
  0
LINE
  8
128
 62
7
  6
CONTINUOUS
 10
408.373099
 20
241.745244
 11
407.939099
 21
241.563244
  0
LINE
  8
128
 62
7
  6
CONTINUOUS
 10
408.805099
 20
241.925244
 11
408.373099
 21
241.745244
  0
LINE
  8
128
 62
7
  6
CONTINUOUS
 10
409.239099
 20
242.103244
 11
408.805099
 21
241.925244
  0
LINE
  8
128
 62
7
  6
CONTINUOUS
 10
409.673099
 20
242.283244
 11
409.239099
 21
242.103244
  0
LINE
  8
128
 62
7
  6
CONTINUOUS
 10
410.107099
 20
242.461244
 11
409.673099
 21
242.283244
  0
LINE
  8
128
 62
7
  6
CONTINUOUS
 10
410.541099
 20
242.639244
 11
410.107099
 21
242.461244
  0
LINE
  8
128
 62
7
  6
CONTINUOUS
 10
410.975099
 20
242.815244
 11
410.541099
 21
242.639244
  0
LINE
  8
128
 62
7
  6
CONTINUOUS
 10
411.371099
 20
242.975244
 11
410.975099
 21
242.815244
  0
LINE
  8
128
 62
7
  6
CONTINUOUS
 10
411.767099
 20
243.135244
 11
411.371099
 21
242.975244
  0
LINE
  8
128
 62
7
  6
CONTINUOUS
 10
412.163099
 20
243.293244
 11
411.767099
 21
243.135244
  0
LINE
  8
128
 62
7
  6
CONTINUOUS
 10
412.561099
 20
243.451244
 11
412.163099
 21
243.293244
  0
LINE
  8
128
 62
7
  6
CONTINUOUS
 10
412.957099
 20
243.607244
 11
412.561099
 21
243.451244
  0
LINE
  8
128
 62
7
  6
CONTINUOUS
 10
413.355099
 20
243.763244
 11
412.957099
 21
243.607244
  0
LINE
  8
128
 62
7
  6
CONTINUOUS
 10
413.753099
 20
243.917244
 11
413.355099
 21
243.763244
  0
LINE
  8
128
 62
7
  6
CONTINUOUS
 10
414.151099
 20
244.071244
 11
413.753099
 21
243.917244
  0
LINE
  8
128
 62
7
  6
CONTINUOUS
 10
414.551099
 20
244.223244
 11
414.151099
 21
244.071244
  0
LINE
  8
128
 62
7
  6
CONTINUOUS
 10
414.951099
 20
244.373244
 11
414.551099
 21
244.223244
  0
LINE
  8
128
 62
7
  6
CONTINUOUS
 10
415.223099
 20
244.475244
 11
414.951099
 21
244.373244
  0
LINE
  8
128
 62
7
  6
CONTINUOUS
 10
415.495099
 20
244.575244
 11
415.223099
 21
244.475244
  0
LINE
  8
128
 62
7
  6
CONTINUOUS
 10
415.767099
 20
244.675244
 11
415.495099
 21
244.575244
  0
LINE
  8
128
 62
7
  6
CONTINUOUS
 10
416.039099
 20
244.775244
 11
415.767099
 21
244.675244
  0
LINE
  8
128
 62
7
  6
CONTINUOUS
 10
416.313099
 20
244.875244
 11
416.039099
 21
244.775244
  0
LINE
  8
128
 62
7
  6
CONTINUOUS
 10
416.587099
 20
244.973244
 11
416.313099
 21
244.875244
  0
LINE
  8
128
 62
7
  6
CONTINUOUS
 10
416.859099
 20
245.071244
 11
416.587099
 21
244.973244
  0
LINE
  8
128
 62
7
  6
CONTINUOUS
 10
417.133099
 20
245.169244
 11
416.859099
 21
245.071244
  0
LINE
  8
128
 62
7
  6
CONTINUOUS
 10
417.407099
 20
245.265244
 11
417.133099
 21
245.169244
  0
LINE
  8
128
 62
7
  6
CONTINUOUS
 10
417.681099
 20
245.361244
 11
417.407099
 21
245.265244
  0
LINE
  8
128
 62
7
  6
CONTINUOUS
 10
417.681099
 20
272.401244
 11
417.681099
 21
245.361244
  0
LINE
  8
128
 62
7
  6
CONTINUOUS
 10
417.681099
 20
272.401244
 11
394.641099
 21
295.441244
  0
LINE
  8
128
 62
7
  6
CONTINUOUS
 10
445.985099
 20
249.683244
 11
445.975099
 21
249.693244
  0
LINE
  8
128
 62
7
  6
CONTINUOUS
 10
447.157099
 20
246.855244
 11
445.985099
 21
249.683244
  0
ARC
  8
128
 62
7
  6
CONTINUOUS
 10
-41679.220901
 20
-48330.724756
 40
64299.400000
 50
49.068238
 51
49.102995
  0
LINE
  8
128
 62
7
  6
CONTINUOUS
 10
447.157099
 20
233.013244
 11
447.157099
 21
246.855244
  0
LINE
  8
128
 62
7
  6
CONTINUOUS
 10
387.157099
 20
235.851244
 11
387.157099
 21
233.013244
  0
ARC
  8
128
 62
7
  6
CONTINUOUS
 10
144.835099
 20
242.797244
 40
297.082000
 50
2.153652
 51
2.723933
  0
ARC
  8
128
 62
7
  6
CONTINUOUS
 10
380.927099
 20
-5.366756
 40
308.652000
 50
87.282530
 51
87.831479
  0
LINE
  8
128
 62
7
  6
CONTINUOUS
 10
384.373099
 20
309.303244
 11
384.355099
 21
309.327244
  0
LINE
  8
128
 62
7
  6
CONTINUOUS
 10
384.391099
 20
309.277244
 11
384.373099
 21
309.303244
  0
LINE
  8
128
 62
7
  6
CONTINUOUS
 10
384.409099
 20
309.253244
 11
384.391099
 21
309.277244
  0
LINE
  8
128
 62
7
  6
CONTINUOUS
 10
384.425099
 20
309.227244
 11
384.409099
 21
309.253244
  0
LINE
  8
128
 62
7
  6
CONTINUOUS
 10
384.443099
 20
309.203244
 11
384.425099
 21
309.227244
  0
LINE
  8
128
 62
7
  6
CONTINUOUS
 10
384.461099
 20
309.179244
 11
384.443099
 21
309.203244
  0
LINE
  8
128
 62
7
  6
CONTINUOUS
 10
384.479099
 20
309.153244
 11
384.461099
 21
309.179244
  0
LINE
  8
128
 62
7
  6
CONTINUOUS
 10
384.497099
 20
309.129244
 11
384.479099
 21
309.153244
  0
LINE
  8
128
 62
7
  6
CONTINUOUS
 10
384.515099
 20
309.103244
 11
384.497099
 21
309.129244
  0
LINE
  8
128
 62
7
  6
CONTINUOUS
 10
384.533099
 20
309.079244
 11
384.515099
 21
309.103244
  0
LINE
  8
128
 62
7
  6
CONTINUOUS
 10
384.591099
 20
308.997244
 11
384.533099
 21
309.079244
  0
LINE
  8
128
 62
7
  6
CONTINUOUS
 10
384.649099
 20
308.915244
 11
384.591099
 21
308.997244
  0
LINE
  8
128
 62
7
  6
CONTINUOUS
 10
384.707099
 20
308.833244
 11
384.649099
 21
308.915244
  0
LINE
  8
128
 62
7
  6
CONTINUOUS
 10
384.763099
 20
308.749244
 11
384.707099
 21
308.833244
  0
LINE
  8
128
 62
7
  6
CONTINUOUS
 10
384.821099
 20
308.667244
 11
384.763099
 21
308.749244
  0
LINE
  8
128
 62
7
  6
CONTINUOUS
 10
384.877099
 20
308.583244
 11
384.821099
 21
308.667244
  0
LINE
  8
128
 62
7
  6
CONTINUOUS
 10
384.933099
 20
308.501244
 11
384.877099
 21
308.583244
  0
LINE
  8
128
 62
7
  6
CONTINUOUS
 10
384.991099
 20
308.419244
 11
384.933099
 21
308.501244
  0
LINE
  8
128
 62
7
  6
CONTINUOUS
 10
385.047099
 20
308.335244
 11
384.991099
 21
308.419244
  0
LINE
  8
128
 62
7
  6
CONTINUOUS
 10
385.103099
 20
308.251244
 11
385.047099
 21
308.335244
  0
LINE
  8
128
 62
7
  6
CONTINUOUS
 10
385.197099
 20
308.113244
 11
385.103099
 21
308.251244
  0
LINE
  8
128
 62
7
  6
CONTINUOUS
 10
385.291099
 20
307.973244
 11
385.197099
 21
308.113244
  0
LINE
  8
128
 62
7
  6
CONTINUOUS
 10
385.385099
 20
307.833244
 11
385.291099
 21
307.973244
  0
LINE
  8
128
 62
7
  6
CONTINUOUS
 10
385.479099
 20
307.693244
 11
385.385099
 21
307.833244
  0
LINE
  8
128
 62
7
  6
CONTINUOUS
 10
385.573099
 20
307.553244
 11
385.479099
 21
307.693244
  0
LINE
  8
128
 62
7
  6
CONTINUOUS
 10
385.667099
 20
307.415244
 11
385.573099
 21
307.553244
  0
LINE
  8
128
 62
7
  6
CONTINUOUS
 10
385.761099
 20
307.275244
 11
385.667099
 21
307.415244
  0
LINE
  8
128
 62
7
  6
CONTINUOUS
 10
385.855099
 20
307.135244
 11
385.761099
 21
307.275244
  0
LINE
  8
128
 62
7
  6
CONTINUOUS
 10
385.949099
 20
306.995244
 11
385.855099
 21
307.135244
  0
LINE
  8
128
 62
7
  6
CONTINUOUS
 10
386.043099
 20
306.855244
 11
385.949099
 21
306.995244
  0
LINE
  8
128
 62
7
  6
CONTINUOUS
 10
386.175099
 20
306.661244
 11
386.043099
 21
306.855244
  0
LINE
  8
128
 62
7
  6
CONTINUOUS
 10
386.305099
 20
306.465244
 11
386.175099
 21
306.661244
  0
LINE
  8
128
 62
7
  6
CONTINUOUS
 10
386.437099
 20
306.269244
 11
386.305099
 21
306.465244
  0
LINE
  8
128
 62
7
  6
CONTINUOUS
 10
386.569099
 20
306.075244
 11
386.437099
 21
306.269244
  0
LINE
  8
128
 62
7
  6
CONTINUOUS
 10
386.699099
 20
305.879244
 11
386.569099
 21
306.075244
  0
LINE
  8
128
 62
7
  6
CONTINUOUS
 10
386.831099
 20
305.683244
 11
386.699099
 21
305.879244
  0
LINE
  8
128
 62
7
  6
CONTINUOUS
 10
386.961099
 20
305.489244
 11
386.831099
 21
305.683244
  0
LINE
  8
128
 62
7
  6
CONTINUOUS
 10
387.091099
 20
305.293244
 11
386.961099
 21
305.489244
  0
LINE
  8
128
 62
7
  6
CONTINUOUS
 10
387.223099
 20
305.097244
 11
387.091099
 21
305.293244
  0
LINE
  8
128
 62
7
  6
CONTINUOUS
 10
387.353099
 20
304.903244
 11
387.223099
 21
305.097244
  0
LINE
  8
128
 62
7
  6
CONTINUOUS
 10
387.797099
 20
307.873244
 11
445.975099
 21
249.693244
  0
LINE
  8
128
 62
7
  6
CONTINUOUS
 10
387.797099
 20
307.873244
 11
384.353099
 21
309.329244
  0
LINE
  8
128
 62
7
  6
CONTINUOUS
 10
395.537099
 20
302.959244
 11
395.361099
 21
302.967244
  0
LINE
  8
128
 62
7
  6
CONTINUOUS
 10
441.617099
 20
256.639244
 11
441.605099
 21
256.893244
  0
LINE
  8
128
 62
7
  6
CONTINUOUS
 10
446.657099
 20
232.513244
 11
447.157099
 21
233.013244
  0
LINE
  8
128
 62
7
  6
CONTINUOUS
 10
373.157099
 20
309.543244
 11
384.337099
 21
309.347244
  0
LINE
  8
128
 62
7
  6
CONTINUOUS
 10
391.045099
 20
235.783244
 11
373.157099
 21
236.097244
  0
LINE
  8
128
 62
7
  6
CONTINUOUS
 10
373.157099
 20
255.781244
 11
417.681099
 21
245.361244
  0
LINE
  8
128
 62
7
  6
CONTINUOUS
 10
395.559099
 20
302.937244
 11
441.605099
 21
256.893244
  0
LINE
  8
128
 62
7
  6
CONTINUOUS
 10
446.640871
 20
192.513244
 11
387.640871
 21
192.513244
  0
CIRCLE
  8
128
 62
7
  6
CONTINUOUS
 10
444.684871
 20
231.381244
 40
0.500000
  0
LINE
  8
128
 62
7
  6
CONTINUOUS
 10
447.140871
 20
232.013244
 11
446.640871
 21
232.513244
  0
LINE
  8
128
 62
7
  6
CONTINUOUS
 10
387.140871
 20
232.013244
 11
387.640871
 21
232.513244
  0
LINE
  8
128
 62
7
  6
CONTINUOUS
 10
447.140871
 20
194.863244
 11
387.142871
 21
194.863244
  0
ARC
  8
128
 62
7
  6
CONTINUOUS
 10
384.690871
 20
197.363244
 40
3.500000
 50
-45.584691
 51
42.491934
  0
ARC
  8
128
 62
7
  6
CONTINUOUS
 10
382.702871
 20
216.113244
 40
5.500000
 50
-34.629559
 51
34.629559
  0
ARC
  8
128
 62
7
  6
CONTINUOUS
 10
382.702871
 20
209.113244
 40
5.500000
 50
-34.629559
 51
34.629559
  0
ARC
  8
128
 62
7
  6
CONTINUOUS
 10
384.690871
 20
202.863244
 40
3.500000
 50
-42.491934
 51
42.491934
  0
ARC
  8
128
 62
7
  6
CONTINUOUS
 10
384.690871
 20
222.363244
 40
3.500000
 50
-42.491934
 51
42.491934
  0
ARC
  8
128
 62
7
  6
CONTINUOUS
 10
384.690871
 20
227.863244
 40
3.500000
 50
-42.491934
 51
45.584692
  0
LINE
  8
128
 62
7
  6
CONTINUOUS
 10
387.140871
 20
193.013244
 11
387.140871
 21
194.863244
  0
LINE
  8
128
 62
7
  6
CONTINUOUS
 10
447.140871
 20
200.113244
 11
387.142871
 21
200.113244
  0
LINE
  8
128
 62
7
  6
CONTINUOUS
 10
447.140871
 20
205.569244
 11
387.140871
 21
205.569244
  0
LINE
  8
128
 62
7
  6
CONTINUOUS
 10
447.140871
 20
212.613244
 11
387.140871
 21
212.613244
  0
LINE
  8
128
 62
7
  6
CONTINUOUS
 10
447.140871
 20
219.655244
 11
387.140871
 21
219.655244
  0
LINE
  8
128
 62
7
  6
CONTINUOUS
 10
447.140871
 20
225.113244
 11
387.140871
 21
225.113244
  0
LINE
  8
128
 62
7
  6
CONTINUOUS
 10
447.140871
 20
230.363244
 11
387.140871
 21
230.363244
  0
LINE
  8
128
 62
7
  6
CONTINUOUS
 10
387.140871
 20
225.065244
 11
387.140871
 21
225.161244
  0
LINE
  8
128
 62
7
  6
CONTINUOUS
 10
387.140871
 20
200.161244
 11
387.140871
 21
200.065244
  0
LINE
  8
128
 62
7
  6
CONTINUOUS
 10
387.140871
 20
205.565244
 11
387.140871
 21
205.703244
  0
LINE
  8
128
 62
7
  6
CONTINUOUS
 10
387.140871
 20
212.521244
 11
387.140871
 21
212.703244
  0
LINE
  8
128
 62
7
  6
CONTINUOUS
 10
387.140871
 20
219.521244
 11
387.140871
 21
219.661244
  0
ARC
  8
128
 62
7
  6
CONTINUOUS
 10
387.640871
 20
200.065244
 40
0.500000
 50
180.000000
 51
-137.508066
  0
ARC
  8
128
 62
7
  6
CONTINUOUS
 10
387.640871
 20
200.161244
 40
0.500000
 50
137.508066
 51
180.000000
  0
ARC
  8
128
 62
7
  6
CONTINUOUS
 10
387.640871
 20
205.565244
 40
0.500000
 50
180.000000
 51
-137.508066
  0
ARC
  8
128
 62
7
  6
CONTINUOUS
 10
387.640871
 20
205.703244
 40
0.500000
 50
145.370441
 51
180.000000
  0
ARC
  8
128
 62
7
  6
CONTINUOUS
 10
387.640871
 20
212.521244
 40
0.500000
 50
180.000000
 51
-145.370441
  0
ARC
  8
128
 62
7
  6
CONTINUOUS
 10
387.640871
 20
212.703244
 40
0.500000
 50
145.370441
 51
180.000000
  0
ARC
  8
128
 62
7
  6
CONTINUOUS
 10
387.640871
 20
219.521244
 40
0.500000
 50
180.000000
 51
-145.370441
  0
ARC
  8
128
 62
7
  6
CONTINUOUS
 10
387.640871
 20
219.661244
 40
0.500000
 50
137.508066
 51
180.000000
  0
ARC
  8
128
 62
7
  6
CONTINUOUS
 10
387.640871
 20
225.065244
 40
0.500000
 50
180.000000
 51
-137.508066
  0
ARC
  8
128
 62
7
  6
CONTINUOUS
 10
387.640871
 20
225.161244
 40
0.500000
 50
137.508066
 51
180.000000
  0
ARC
  8
128
 62
7
  6
CONTINUOUS
 10
449.590871
 20
227.863244
 40
3.500000
 50
134.415308
 51
-137.508066
  0
ARC
  8
128
 62
7
  6
CONTINUOUS
 10
449.590871
 20
222.363244
 40
3.500000
 50
137.508066
 51
-137.508066
  0
ARC
  8
128
 62
7
  6
CONTINUOUS
 10
449.590871
 20
202.863244
 40
3.500000
 50
137.508066
 51
-137.508066
  0
ARC
  8
128
 62
7
  6
CONTINUOUS
 10
451.576871
 20
209.113244
 40
5.500000
 50
145.370441
 51
-145.370441
  0
ARC
  8
128
 62
7
  6
CONTINUOUS
 10
451.576871
 20
216.113244
 40
5.500000
 50
145.370441
 51
-145.370441
  0
ARC
  8
128
 62
7
  6
CONTINUOUS
 10
449.590871
 20
197.363244
 40
3.500000
 50
137.508066
 51
-134.415309
  0
ARC
  8
128
 62
7
  6
CONTINUOUS
 10
446.640871
 20
225.161244
 40
0.500000
 50
0.000000
 51
42.491934
  0
ARC
  8
128
 62
7
  6
CONTINUOUS
 10
446.640871
 20
225.065244
 40
0.500000
 50
-42.491934
 51
0.000000
  0
ARC
  8
128
 62
7
  6
CONTINUOUS
 10
446.640871
 20
219.661244
 40
0.500000
 50
0.000000
 51
42.491934
  0
ARC
  8
128
 62
7
  6
CONTINUOUS
 10
446.640871
 20
205.565244
 40
0.500000
 50
-42.491934
 51
0.000000
  0
ARC
  8
128
 62
7
  6
CONTINUOUS
 10
446.640871
 20
200.161244
 40
0.500000
 50
0.000000
 51
42.491934
  0
ARC
  8
128
 62
7
  6
CONTINUOUS
 10
446.640871
 20
200.065244
 40
0.500000
 50
-42.491934
 51
0.000000
  0
LINE
  8
128
 62
7
  6
CONTINUOUS
 10
447.140871
 20
219.521244
 11
447.140871
 21
219.661244
  0
LINE
  8
128
 62
7
  6
CONTINUOUS
 10
447.140871
 20
212.521244
 11
447.140871
 21
212.703244
  0
LINE
  8
128
 62
7
  6
CONTINUOUS
 10
447.140871
 20
205.565244
 11
447.140871
 21
205.703244
  0
LINE
  8
128
 62
7
  6
CONTINUOUS
 10
447.140871
 20
200.161244
 11
447.140871
 21
200.065244
  0
LINE
  8
128
 62
7
  6
CONTINUOUS
 10
447.140871
 20
225.065244
 11
447.140871
 21
225.161244
  0
ARC
  8
128
 62
7
  6
CONTINUOUS
 10
446.640871
 20
205.703244
 40
0.500000
 50
0.000000
 51
34.629559
  0
ARC
  8
128
 62
7
  6
CONTINUOUS
 10
446.640871
 20
212.521244
 40
0.500000
 50
-34.629559
 51
0.000000
  0
ARC
  8
128
 62
7
  6
CONTINUOUS
 10
446.640871
 20
212.703244
 40
0.500000
 50
0.000000
 51
34.629559
  0
ARC
  8
128
 62
7
  6
CONTINUOUS
 10
446.640871
 20
219.521244
 40
0.500000
 50
-34.629559
 51
0.000000
  0
LINE
  8
128
 62
7
  6
CONTINUOUS
 10
447.140871
 20
193.013244
 11
447.140871
 21
194.863244
  0
LINE
  8
128
 62
7
  6
HIDDEN
 10
396.190871
 20
222.313244
 11
413.390871
 21
205.113244
  0
LINE
  8
128
 62
7
  6
CONTINUOUS
 10
419.998871
 20
194.513244
 11
419.998871
 21
227.513244
  0
LINE
  8
128
 62
7
  6
CONTINUOUS
 10
443.476871
 20
227.513244
 11
442.900871
 21
194.513244
  0
LINE
  8
128
 62
7
  6
CONTINUOUS
 10
422.702871
 20
194.513244
 11
422.702871
 21
227.513244
  0
LINE
  8
128
 62
7
  6
CONTINUOUS
 10
425.408871
 20
194.513244
 11
425.408871
 21
227.513244
  0
LINE
  8
128
 62
7
  6
CONTINUOUS
 10
428.022871
 20
194.513244
 11
428.022871
 21
227.513244
  0
LINE
  8
128
 62
7
  6
CONTINUOUS
 10
430.518871
 20
194.513244
 11
430.518871
 21
227.513244
  0
LINE
  8
128
 62
7
  6
CONTINUOUS
 10
432.868871
 20
194.513244
 11
432.868871
 21
227.513244
  0
LINE
  8
128
 62
7
  6
CONTINUOUS
 10
435.044871
 20
194.513244
 11
435.044871
 21
227.513244
  0
LINE
  8
128
 62
7
  6
CONTINUOUS
 10
437.024871
 20
194.513244
 11
437.024871
 21
227.513244
  0
LINE
  8
128
 62
7
  6
CONTINUOUS
 10
438.788871
 20
194.513244
 11
438.788871
 21
227.513244
  0
LINE
  8
128
 62
7
  6
CONTINUOUS
 10
440.312871
 20
194.513244
 11
440.312871
 21
227.513244
  0
LINE
  8
128
 62
7
  6
CONTINUOUS
 10
441.584871
 20
194.513244
 11
441.584871
 21
227.513244
  0
LINE
  8
128
 62
7
  6
CONTINUOUS
 10
442.588871
 20
194.513244
 11
442.588871
 21
227.513244
  0
LINE
  8
128
 62
7
  6
HIDDEN
 10
438.190871
 20
222.313244
 11
442.090871
 21
226.213244
  0
LINE
  8
128
 62
7
  6
HIDDEN
 10
438.090871
 20
222.313244
 11
420.890871
 21
205.113244
  0
LINE
  8
128
 62
7
  6
CONTINUOUS
 10
392.696871
 20
194.513244
 11
392.696871
 21
227.513244
  0
LINE
  8
128
 62
7
  6
CONTINUOUS
 10
391.692871
 20
194.513244
 11
391.692871
 21
227.513244
  0
LINE
  8
128
 62
7
  6
CONTINUOUS
 10
414.282871
 20
194.513244
 11
414.282871
 21
227.513244
  0
LINE
  8
128
 62
7
  6
HIDDEN
 10
396.090871
 20
222.313244
 11
392.190871
 21
226.213244
  0
LINE
  8
128
 62
7
  6
CONTINUOUS
 10
411.576871
 20
194.513244
 11
411.576871
 21
227.513244
  0
LINE
  8
128
 62
7
  6
CONTINUOUS
 10
408.872871
 20
194.513244
 11
408.872871
 21
227.513244
  0
LINE
  8
128
 62
7
  6
CONTINUOUS
 10
406.256871
 20
194.513244
 11
406.256871
 21
227.513244
  0
LINE
  8
128
 62
7
  6
CONTINUOUS
 10
403.760871
 20
194.513244
 11
403.760871
 21
227.513244
  0
LINE
  8
128
 62
7
  6
CONTINUOUS
 10
401.412871
 20
194.513244
 11
401.412871
 21
227.513244
  0
LINE
  8
128
 62
7
  6
CONTINUOUS
 10
399.236871
 20
194.513244
 11
399.236871
 21
227.513244
  0
LINE
  8
128
 62
7
  6
CONTINUOUS
 10
397.254871
 20
194.513244
 11
397.254871
 21
227.513244
  0
LINE
  8
128
 62
7
  6
CONTINUOUS
 10
395.492871
 20
194.513244
 11
395.492871
 21
227.513244
  0
LINE
  8
128
 62
7
  6
CONTINUOUS
 10
393.966871
 20
194.513244
 11
393.966871
 21
227.513244
  0
LINE
  8
128
 62
7
  6
CONTINUOUS
 10
390.804871
 20
227.513244
 11
391.380871
 21
194.513244
  0
LINE
  8
128
 62
7
  6
HIDDEN
 10
392.190871
 20
226.213244
 11
442.090871
 21
226.213244
  0
LINE
  8
128
 62
7
  6
HIDDEN
 10
389.890871
 20
231.013244
 11
444.390871
 21
231.013244
  0
LINE
  8
128
 62
7
  6
HIDDEN
 10
392.640871
 20
194.113244
 11
441.640871
 21
194.113244
  0
LINE
  8
128
 62
7
  6
HIDDEN
 10
413.390871
 20
205.113244
 11
420.890871
 21
205.113244
  0
LINE
  8
128
 62
7
  6
HIDDEN
 10
413.390871
 20
194.113244
 11
413.390871
 21
205.113244
  0
LINE
  8
128
 62
7
  6
HIDDEN
 10
420.890871
 20
194.113244
 11
420.890871
 21
205.113244
  0
LINE
  8
128
 62
7
  6
HIDDEN
 10
405.614871
 20
195.113244
 11
411.114871
 21
195.113244
  0
LINE
  8
128
 62
7
  6
HIDDEN
 10
411.114871
 20
194.113244
 11
411.114871
 21
195.113244
  0
LINE
  8
128
 62
7
  6
HIDDEN
 10
410.864871
 20
195.113244
 11
410.864871
 21
201.613244
  0
LINE
  8
128
 62
7
  6
HIDDEN
 10
405.614871
 20
194.113244
 11
405.614871
 21
195.113244
  0
LINE
  8
128
 62
7
  6
HIDDEN
 10
405.864871
 20
195.113244
 11
405.864871
 21
201.613244
  0
ARC
  8
128
 62
7
  6
HIDDEN
 10
408.364871
 20
201.613244
 40
2.500000
 50
0.000000
 51
180.000000
  0
ARC
  8
128
 62
7
  6
HIDDEN
 10
425.614871
 20
201.613244
 40
2.500000
 50
0.000000
 51
180.000000
  0
LINE
  8
128
 62
7
  6
HIDDEN
 10
423.114871
 20
195.113244
 11
423.114871
 21
201.613244
  0
LINE
  8
128
 62
7
  6
HIDDEN
 10
428.114871
 20
195.113244
 11
428.114871
 21
201.613244
  0
LINE
  8
128
 62
7
  6
HIDDEN
 10
422.864871
 20
195.113244
 11
428.364871
 21
195.113244
  0
LINE
  8
128
 62
7
  6
HIDDEN
 10
428.364871
 20
194.113244
 11
428.364871
 21
195.113244
  0
LINE
  8
128
 62
7
  6
HIDDEN
 10
422.864871
 20
194.113244
 11
422.864871
 21
195.113244
  0
ARC
  8
128
 62
7
  6
HIDDEN
 10
444.390871
 20
231.763244
 40
0.750000
 50
-90.000000
 51
90.000000
  0
ARC
  8
128
 62
7
  6
HIDDEN
 10
389.890871
 20
231.763244
 40
0.750000
 50
90.000000
 51
-90.000000
  0
LINE
  8
128
 62
7
  6
CONTINUOUS
 10
447.140871
 20
230.363244
 11
447.140871
 21
232.013244
  0
LINE
  8
128
 62
7
  6
CONTINUOUS
 10
387.140871
 20
230.363244
 11
387.140871
 21
232.013244
  0
LINE
  8
128
 62
7
  6
CONTINUOUS
 10
446.640871
 20
192.513244
 11
447.140871
 21
193.013244
  0
LINE
  8
128
 62
7
  6
CONTINUOUS
 10
387.640871
 20
192.513244
 11
387.140871
 21
193.013244
  0
LINE
  8
128
 62
7
  6
HIDDEN
 10
441.640871
 20
192.513244
 11
441.640871
 21
194.113244
  0
LINE
  8
128
 62
7
  6
HIDDEN
 10
392.640871
 20
192.513244
 11
392.640871
 21
194.113244
  0
LINE
  8
128
 62
7
  6
CONTINUOUS
 10
387.140871
 20
190.363244
 11
387.140871
 21
192.013244
  0
LINE
  8
128
 62
7
  6
CONTINUOUS
 10
387.140871
 20
192.013244
 11
387.640871
 21
192.513244
  0
LINE
  8
128
 62
7
  6
CONTINUOUS
 10
447.140871
 20
192.013244
 11
446.640871
 21
192.513244
  0
LINE
  8
128
 62
7
  6
CONTINUOUS
 10
387.140871
 20
233.013244
 11
387.640871
 21
232.513244
  0
LINE
  8
128
 62
7
  6
CONTINUOUS
 10
446.640871
 20
232.513244
 11
447.140871
 21
233.013244
  0
LINE
  8
128
 62
7
  6
CONTINUOUS
 10
446.640871
 20
232.513244
 11
387.640871
 21
232.513244
  0
CIRCLE
  8
128
 62
7
  6
CONTINUOUS
 10
444.684871
 20
191.381244
 40
0.500000
  0
CIRCLE
  8
128
 62
7
  6
CONTINUOUS
 10
440.596871
 20
169.495244
 40
0.500000
  0
CIRCLE
  8
128
 62
7
  6
CONTINUOUS
 10
431.216871
 20
160.835244
 40
0.500000
  0
CIRCLE
  8
128
 62
7
  6
CONTINUOUS
 10
430.014871
 20
176.469244
 40
0.500000
  0
CIRCLE
  8
128
 62
7
  6
CONTINUOUS
 10
444.684871
 20
151.381244
 40
0.500000
  0
CIRCLE
  8
128
 62
7
  6
CONTINUOUS
 10
437.910871
 20
146.751244
 40
0.500000
  0
LINE
  8
128
 62
7
  6
CONTINUOUS
 10
446.640871
 20
192.513244
 11
387.640871
 21
192.513244
  0
LINE
  8
128
 62
7
  6
CONTINUOUS
 10
447.140871
 20
154.863244
 11
387.142871
 21
154.863244
  0
ARC
  8
128
 62
7
  6
CONTINUOUS
 10
384.690871
 20
157.363244
 40
3.500000
 50
-45.584691
 51
42.491934
  0
ARC
  8
128
 62
7
  6
CONTINUOUS
 10
382.702871
 20
176.113244
 40
5.500000
 50
-34.629559
 51
34.629559
  0
ARC
  8
128
 62
7
  6
CONTINUOUS
 10
382.702871
 20
169.113244
 40
5.500000
 50
-34.629559
 51
34.629559
  0
ARC
  8
128
 62
7
  6
CONTINUOUS
 10
384.690871
 20
162.863244
 40
3.500000
 50
-42.491934
 51
42.491934
  0
ARC
  8
128
 62
7
  6
CONTINUOUS
 10
384.690871
 20
182.363244
 40
3.500000
 50
-42.491934
 51
42.491934
  0
ARC
  8
128
 62
7
  6
CONTINUOUS
 10
384.690871
 20
187.863244
 40
3.500000
 50
-42.491934
 51
45.584692
  0
LINE
  8
128
 62
7
  6
CONTINUOUS
 10
387.140871
 20
190.363244
 11
387.140871
 21
192.013244
  0
LINE
  8
128
 62
7
  6
CONTINUOUS
 10
387.140871
 20
153.013244
 11
387.140871
 21
154.863244
  0
LINE
  8
128
 62
7
  6
CONTINUOUS
 10
447.140871
 20
160.113244
 11
387.142871
 21
160.113244
  0
LINE
  8
128
 62
7
  6
CONTINUOUS
 10
447.140871
 20
165.569244
 11
387.140871
 21
165.569244
  0
LINE
  8
128
 62
7
  6
CONTINUOUS
 10
447.140871
 20
172.613244
 11
387.140871
 21
172.613244
  0
LINE
  8
128
 62
7
  6
CONTINUOUS
 10
447.140871
 20
179.655244
 11
387.140871
 21
179.655244
  0
LINE
  8
128
 62
7
  6
CONTINUOUS
 10
447.140871
 20
185.113244
 11
387.140871
 21
185.113244
  0
LINE
  8
128
 62
7
  6
CONTINUOUS
 10
447.140871
 20
190.363244
 11
387.140871
 21
190.363244
  0
LINE
  8
128
 62
7
  6
CONTINUOUS
 10
387.140871
 20
185.065244
 11
387.140871
 21
185.161244
  0
LINE
  8
128
 62
7
  6
CONTINUOUS
 10
387.140871
 20
160.161244
 11
387.140871
 21
160.065244
  0
LINE
  8
128
 62
7
  6
CONTINUOUS
 10
387.140871
 20
165.565244
 11
387.140871
 21
165.703244
  0
LINE
  8
128
 62
7
  6
CONTINUOUS
 10
387.140871
 20
172.521244
 11
387.140871
 21
172.703244
  0
LINE
  8
128
 62
7
  6
CONTINUOUS
 10
387.140871
 20
179.521244
 11
387.140871
 21
179.661244
  0
ARC
  8
128
 62
7
  6
CONTINUOUS
 10
387.640871
 20
160.065244
 40
0.500000
 50
180.000000
 51
-137.508066
  0
ARC
  8
128
 62
7
  6
CONTINUOUS
 10
387.640871
 20
160.161244
 40
0.500000
 50
137.508066
 51
180.000000
  0
ARC
  8
128
 62
7
  6
CONTINUOUS
 10
387.640871
 20
165.565244
 40
0.500000
 50
180.000000
 51
-137.508066
  0
ARC
  8
128
 62
7
  6
CONTINUOUS
 10
387.640871
 20
165.703244
 40
0.500000
 50
145.370441
 51
180.000000
  0
ARC
  8
128
 62
7
  6
CONTINUOUS
 10
387.640871
 20
172.521244
 40
0.500000
 50
180.000000
 51
-145.370441
  0
ARC
  8
128
 62
7
  6
CONTINUOUS
 10
387.640871
 20
172.703244
 40
0.500000
 50
145.370441
 51
180.000000
  0
ARC
  8
128
 62
7
  6
CONTINUOUS
 10
387.640871
 20
179.521244
 40
0.500000
 50
180.000000
 51
-145.370441
  0
ARC
  8
128
 62
7
  6
CONTINUOUS
 10
387.640871
 20
179.661244
 40
0.500000
 50
137.508066
 51
180.000000
  0
ARC
  8
128
 62
7
  6
CONTINUOUS
 10
387.640871
 20
185.065244
 40
0.500000
 50
180.000000
 51
-137.508066
  0
ARC
  8
128
 62
7
  6
CONTINUOUS
 10
387.640871
 20
185.161244
 40
0.500000
 50
137.508066
 51
180.000000
  0
LINE
  8
128
 62
7
  6
CONTINUOUS
 10
387.140871
 20
192.013244
 11
387.640871
 21
192.513244
  0
LINE
  8
128
 62
7
  6
CONTINUOUS
 10
447.140871
 20
192.013244
 11
446.640871
 21
192.513244
  0
ARC
  8
128
 62
7
  6
CONTINUOUS
 10
449.590871
 20
187.863244
 40
3.500000
 50
134.415308
 51
-137.508066
  0
ARC
  8
128
 62
7
  6
CONTINUOUS
 10
449.590871
 20
182.363244
 40
3.500000
 50
137.508066
 51
-137.508066
  0
ARC
  8
128
 62
7
  6
CONTINUOUS
 10
449.590871
 20
162.863244
 40
3.500000
 50
137.508066
 51
-137.508066
  0
ARC
  8
128
 62
7
  6
CONTINUOUS
 10
451.576871
 20
169.113244
 40
5.500000
 50
145.370441
 51
-145.370441
  0
ARC
  8
128
 62
7
  6
CONTINUOUS
 10
451.576871
 20
176.113244
 40
5.500000
 50
145.370441
 51
-145.370441
  0
ARC
  8
128
 62
7
  6
CONTINUOUS
 10
449.590871
 20
157.363244
 40
3.500000
 50
137.508066
 51
-134.415309
  0
ARC
  8
128
 62
7
  6
CONTINUOUS
 10
446.640871
 20
185.161244
 40
0.500000
 50
0.000000
 51
42.491934
  0
ARC
  8
128
 62
7
  6
CONTINUOUS
 10
446.640871
 20
185.065244
 40
0.500000
 50
-42.491934
 51
0.000000
  0
ARC
  8
128
 62
7
  6
CONTINUOUS
 10
446.640871
 20
179.661244
 40
0.500000
 50
0.000000
 51
42.491934
  0
ARC
  8
128
 62
7
  6
CONTINUOUS
 10
446.640871
 20
165.565244
 40
0.500000
 50
-42.491934
 51
0.000000
  0
ARC
  8
128
 62
7
  6
CONTINUOUS
 10
446.640871
 20
160.161244
 40
0.500000
 50
0.000000
 51
42.491934
  0
ARC
  8
128
 62
7
  6
CONTINUOUS
 10
446.640871
 20
160.065244
 40
0.500000
 50
-42.491934
 51
0.000000
  0
LINE
  8
128
 62
7
  6
CONTINUOUS
 10
447.140871
 20
190.363244
 11
447.140871
 21
192.013244
  0
LINE
  8
128
 62
7
  6
CONTINUOUS
 10
447.140871
 20
179.521244
 11
447.140871
 21
179.661244
  0
LINE
  8
128
 62
7
  6
CONTINUOUS
 10
447.140871
 20
172.521244
 11
447.140871
 21
172.703244
  0
LINE
  8
128
 62
7
  6
CONTINUOUS
 10
447.140871
 20
165.565244
 11
447.140871
 21
165.703244
  0
LINE
  8
128
 62
7
  6
CONTINUOUS
 10
447.140871
 20
160.161244
 11
447.140871
 21
160.065244
  0
LINE
  8
128
 62
7
  6
CONTINUOUS
 10
447.140871
 20
185.065244
 11
447.140871
 21
185.161244
  0
ARC
  8
128
 62
7
  6
CONTINUOUS
 10
446.640871
 20
165.703244
 40
0.500000
 50
0.000000
 51
34.629559
  0
ARC
  8
128
 62
7
  6
CONTINUOUS
 10
446.640871
 20
172.521244
 40
0.500000
 50
-34.629559
 51
0.000000
  0
ARC
  8
128
 62
7
  6
CONTINUOUS
 10
446.640871
 20
172.703244
 40
0.500000
 50
0.000000
 51
34.629559
  0
ARC
  8
128
 62
7
  6
CONTINUOUS
 10
446.640871
 20
179.521244
 40
0.500000
 50
-34.629559
 51
0.000000
  0
LINE
  8
128
 62
7
  6
CONTINUOUS
 10
447.140871
 20
153.013244
 11
447.140871
 21
154.863244
  0
LINE
  8
128
 62
7
  6
CONTINUOUS
 10
446.640871
 20
152.513244
 11
447.140871
 21
153.013244
  0
LINE
  8
128
 62
7
  6
CONTINUOUS
 10
387.640871
 20
152.513244
 11
387.140871
 21
153.013244
  0
LINE
  8
128
 62
7
  6
HIDDEN
 10
396.190871
 20
182.313244
 11
413.390871
 21
165.113244
  0
LINE
  8
128
 62
7
  6
CONTINUOUS
 10
419.998871
 20
154.513244
 11
419.998871
 21
187.513244
  0
LINE
  8
128
 62
7
  6
CONTINUOUS
 10
443.476871
 20
187.513244
 11
442.900871
 21
154.513244
  0
LINE
  8
128
 62
7
  6
CONTINUOUS
 10
422.702871
 20
154.513244
 11
422.702871
 21
187.513244
  0
LINE
  8
128
 62
7
  6
CONTINUOUS
 10
425.408871
 20
154.513244
 11
425.408871
 21
187.513244
  0
LINE
  8
128
 62
7
  6
CONTINUOUS
 10
428.022871
 20
154.513244
 11
428.022871
 21
187.513244
  0
LINE
  8
128
 62
7
  6
CONTINUOUS
 10
430.518871
 20
154.513244
 11
430.518871
 21
187.513244
  0
LINE
  8
128
 62
7
  6
CONTINUOUS
 10
432.868871
 20
154.513244
 11
432.868871
 21
187.513244
  0
LINE
  8
128
 62
7
  6
CONTINUOUS
 10
435.044871
 20
154.513244
 11
435.044871
 21
187.513244
  0
LINE
  8
128
 62
7
  6
CONTINUOUS
 10
437.024871
 20
154.513244
 11
437.024871
 21
187.513244
  0
LINE
  8
128
 62
7
  6
CONTINUOUS
 10
438.788871
 20
154.513244
 11
438.788871
 21
187.513244
  0
LINE
  8
128
 62
7
  6
CONTINUOUS
 10
440.312871
 20
154.513244
 11
440.312871
 21
187.513244
  0
LINE
  8
128
 62
7
  6
CONTINUOUS
 10
441.584871
 20
154.513244
 11
441.584871
 21
187.513244
  0
LINE
  8
128
 62
7
  6
CONTINUOUS
 10
442.588871
 20
154.513244
 11
442.588871
 21
187.513244
  0
LINE
  8
128
 62
7
  6
HIDDEN
 10
438.190871
 20
182.313244
 11
442.090871
 21
186.213244
  0
LINE
  8
128
 62
7
  6
HIDDEN
 10
438.090871
 20
182.313244
 11
420.890871
 21
165.113244
  0
LINE
  8
128
 62
7
  6
CONTINUOUS
 10
392.696871
 20
154.513244
 11
392.696871
 21
187.513244
  0
LINE
  8
128
 62
7
  6
CONTINUOUS
 10
391.692871
 20
154.513244
 11
391.692871
 21
187.513244
  0
LINE
  8
128
 62
7
  6
CONTINUOUS
 10
414.282871
 20
154.513244
 11
414.282871
 21
187.513244
  0
LINE
  8
128
 62
7
  6
HIDDEN
 10
396.090871
 20
182.313244
 11
392.190871
 21
186.213244
  0
LINE
  8
128
 62
7
  6
CONTINUOUS
 10
411.576871
 20
154.513244
 11
411.576871
 21
187.513244
  0
LINE
  8
128
 62
7
  6
CONTINUOUS
 10
408.872871
 20
154.513244
 11
408.872871
 21
187.513244
  0
LINE
  8
128
 62
7
  6
CONTINUOUS
 10
406.256871
 20
154.513244
 11
406.256871
 21
187.513244
  0
LINE
  8
128
 62
7
  6
CONTINUOUS
 10
403.760871
 20
154.513244
 11
403.760871
 21
187.513244
  0
LINE
  8
128
 62
7
  6
CONTINUOUS
 10
401.412871
 20
154.513244
 11
401.412871
 21
187.513244
  0
LINE
  8
128
 62
7
  6
CONTINUOUS
 10
399.236871
 20
154.513244
 11
399.236871
 21
187.513244
  0
LINE
  8
128
 62
7
  6
CONTINUOUS
 10
397.254871
 20
154.513244
 11
397.254871
 21
187.513244
  0
LINE
  8
128
 62
7
  6
CONTINUOUS
 10
395.492871
 20
154.513244
 11
395.492871
 21
187.513244
  0
LINE
  8
128
 62
7
  6
CONTINUOUS
 10
393.966871
 20
154.513244
 11
393.966871
 21
187.513244
  0
LINE
  8
128
 62
7
  6
CONTINUOUS
 10
390.804871
 20
187.513244
 11
391.380871
 21
154.513244
  0
LINE
  8
128
 62
7
  6
HIDDEN
 10
392.190871
 20
186.213244
 11
442.090871
 21
186.213244
  0
LINE
  8
128
 62
7
  6
HIDDEN
 10
389.890871
 20
191.013244
 11
444.390871
 21
191.013244
  0
ARC
  8
128
 62
7
  6
HIDDEN
 10
389.890871
 20
191.763244
 40
0.750000
 50
90.000000
 51
-90.000000
  0
ARC
  8
128
 62
7
  6
HIDDEN
 10
444.390871
 20
191.763244
 40
0.750000
 50
-90.000000
 51
90.000000
  0
LINE
  8
128
 62
7
  6
HIDDEN
 10
419.738871
 20
154.113244
 11
419.738871
 21
155.113244
  0
LINE
  8
128
 62
7
  6
HIDDEN
 10
412.272871
 20
154.113244
 11
412.272871
 21
155.113244
  0
LINE
  8
128
 62
7
  6
HIDDEN
 10
411.114871
 20
154.113244
 11
411.114871
 21
155.113244
  0
LINE
  8
128
 62
7
  6
HIDDEN
 10
412.522871
 20
155.113244
 11
412.522871
 21
161.613244
  0
LINE
  8
128
 62
7
  6
HIDDEN
 10
419.988871
 20
155.113244
 11
419.988871
 21
161.613244
  0
LINE
  8
128
 62
7
  6
HIDDEN
 10
392.640871
 20
154.113244
 11
441.640871
 21
154.113244
  0
LINE
  8
128
 62
7
  6
HIDDEN
 10
402.308871
 20
155.113244
 11
431.970871
 21
155.113244
  0
LINE
  8
128
 62
7
  6
HIDDEN
 10
431.720871
 20
155.113244
 11
431.720871
 21
161.613244
  0
LINE
  8
128
 62
7
  6
HIDDEN
 10
430.412871
 20
155.113244
 11
430.412871
 21
161.613244
  0
ARC
  8
128
 62
7
  6
HIDDEN
 10
427.912871
 20
161.613244
 40
2.500000
 50
0.000000
 51
180.000000
  0
ARC
  8
128
 62
7
  6
HIDDEN
 10
408.364871
 20
161.613244
 40
2.500000
 50
0.000000
 51
180.000000
  0
LINE
  8
128
 62
7
  6
HIDDEN
 10
441.640871
 20
152.513244
 11
441.640871
 21
154.113244
  0
LINE
  8
128
 62
7
  6
HIDDEN
 10
430.662871
 20
154.113244
 11
430.662871
 21
155.113244
  0
LINE
  8
128
 62
7
  6
HIDDEN
 10
425.238871
 20
154.113244
 11
425.238871
 21
155.113244
  0
LINE
  8
128
 62
7
  6
HIDDEN
 10
431.970871
 20
154.113244
 11
431.970871
 21
155.113244
  0
ARC
  8
128
 62
7
  6
HIDDEN
 10
422.488871
 20
161.613244
 40
2.500000
 50
0.000000
 51
180.000000
  0
ARC
  8
128
 62
7
  6
HIDDEN
 10
415.022871
 20
161.613244
 40
2.500000
 50
0.000000
 51
180.000000
  0
LINE
  8
128
 62
7
  6
HIDDEN
 10
425.412871
 20
155.113244
 11
425.412871
 21
161.613244
  0
LINE
  8
128
 62
7
  6
HIDDEN
 10
424.988871
 20
155.113244
 11
424.988871
 21
161.613244
  0
ARC
  8
128
 62
7
  6
HIDDEN
 10
429.220871
 20
161.613244
 40
2.500000
 50
-0.000000
 51
105.180573
  0
LINE
  8
128
 62
7
  6
HIDDEN
 10
402.308871
 20
154.113244
 11
402.308871
 21
155.113244
  0
LINE
  8
128
 62
7
  6
HIDDEN
 10
405.614871
 20
154.113244
 11
405.614871
 21
155.113244
  0
ARC
  8
128
 62
7
  6
HIDDEN
 10
405.058871
 20
161.613244
 40
2.500000
 50
48.618854
 51
180.000000
  0
LINE
  8
128
 62
7
  6
HIDDEN
 10
402.558871
 20
155.113244
 11
402.558871
 21
161.613244
  0
LINE
  8
128
 62
7
  6
HIDDEN
 10
405.864871
 20
155.113244
 11
405.864871
 21
161.613244
  0
LINE
  8
128
 62
7
  6
HIDDEN
 10
410.864871
 20
155.113244
 11
410.864871
 21
161.613244
  0
LINE
  8
128
 62
7
  6
HIDDEN
 10
392.640871
 20
152.513244
 11
392.640871
 21
154.113244
  0
LINE
  8
128
 62
7
  6
HIDDEN
 10
413.390871
 20
165.113244
 11
420.890871
 21
165.113244
  0
LINE
  8
128
 62
7
  6
HIDDEN
 10
413.390871
 20
163.997244
 11
413.390871
 21
165.113244
  0
LINE
  8
128
 62
7
  6
HIDDEN
 10
420.890871
 20
163.997244
 11
420.890871
 21
165.113244
  0
ARC
  8
128
 62
7
  6
CONTINUOUS
 10
441.022871
 20
148.867244
 40
6.000000
 50
-74.953747
 51
-1.000003
  0
ARC
  8
128
 62
7
  6
CONTINUOUS
 10
393.256871
 20
148.867244
 40
6.000000
 50
-179.000000
 51
-105.046255
  0
ARC
  8
128
 62
7
  6
CONTINUOUS
 10
417.140871
 20
237.713244
 40
98.000000
 50
-105.046253
 51
-74.953747
  0
LINE
  8
128
 62
7
  6
CONTINUOUS
 10
447.130871
 20
152.013244
 11
447.022871
 21
148.761244
  0
LINE
  8
128
 62
7
  6
CONTINUOUS
 10
447.130871
 20
152.013244
 11
446.648871
 21
152.513244
  0
LINE
  8
128
 62
7
  6
CONTINUOUS
 10
387.148871
 20
152.013244
 11
387.258871
 21
148.761244
  0
LINE
  8
128
 62
7
  6
CONTINUOUS
 10
387.148871
 20
152.013244
 11
387.632871
 21
152.513244
  0
LINE
  8
128
 62
7
  6
CONTINUOUS
 10
446.648871
 20
152.513244
 11
387.632871
 21
152.513244
  0
LINE
  8
128
 62
7
  6
CONTINUOUS
 10
369.157099
 20
318.513244
 11
369.157099
 21
228.513244
  0
LINE
  8
128
 62
7
  6
CONTINUOUS
 10
368.157099
 20
318.513244
 11
368.157099
 21
228.513244
  0
LINE
  8
128
 62
7
  6
CONTINUOUS
 10
342.157099
 20
318.513244
 11
342.157099
 21
228.513244
  0
ARC
  8
128
 62
7
  6
CONTINUOUS
 10
171.567665
 20
273.039189
 40
45.000000
 50
-48.189685
 51
-131.810315
  0
DIMENSION
  8
128
 62
7
  6
CONTINUOUS
  2
*D7
 10
321.761027
 20
228.513244
 11
321.761027
 21
273.513244
 70
     0
  1
φ90
 13
341.907019
 23
228.513244
 14
341.657099
 24
318.513244
 50
90.000000
  0
DIMENSION
  8
128
 62
7
  6
CONTINUOUS
  2
*D8
 10
369.157099
 20
332.977498
 11
355.657099
 21
332.977498
 70
     0
  1
27
 13
369.157099
 23
319.013244
 14
342.157099
 24
319.013244
 50
180.000000
  0
LINE
  8
128
 62
7
  6
CONTINUOUS
 10
349.563748
 20
307.264618
 11
331.850495
 21
332.835630
  0
LINE
  8
128
 62
7
  6
CONTINUOUS
 10
331.850495
 20
332.835630
 11
305.850495
 21
332.835630
  0
TEXT
  8
128
 62
7
  6
CONTINUOUS
 10
305.850495
 20
332.835630
 40
4.000000
 41
0.500000
  1
ｼﾞｬﾝｸｼｮﾝﾎﾞｯｸｽ
  7
KANJI
 50
0.000000
 51
0.000000
  0
CIRCLE
  8
128
 62
7
  6
CONTINUOUS
 10
349.563748
 20
307.264618
 40
0.300000
  0
CIRCLE
  8
128
 62
7
  6
CONTINUOUS
 10
349.563748
 20
307.264618
 40
0.150000
  0
TEXT
  8
1
 62
7
  6
CONTINUOUS
 10
40.552567
 20
375.245877
 40
9.870000
 41
0.833333
  1
LED招き灯外観図
  7
KANJI
 50
0.000000
 51
0.000000
  0
TEXT
  8
1
 62
7
  6
CONTINUOUS
 10
462.144242
 20
108.387979
 40
4.935000
 41
0.822857
  1
本体：ｱｲﾎﾞﾘｰ、ﾗﾝﾌﾟ部：透明レンズ
  7
KANJI
 50
0.000000
 51
0.000000
  0
LINE
  8
1
 62
7
  6
CONTINUOUS
 10
16.041391
 20
15.741532
 11
572.709391
 21
15.741532
  0
LINE
  8
1
 62
7
  6
CONTINUOUS
 10
16.041391
 20
404.337532
 11
16.041391
 21
15.741532
  0
LINE
  8
1
 62
7
  6
CONTINUOUS
 10
572.709391
 20
404.337532
 11
16.041391
 21
404.337532
  0
LINE
  8
1
 62
7
  6
CONTINUOUS
 10
572.709391
 20
15.741532
 11
572.709391
 21
404.337532
  0
LINE
  8
1
 62
7
  6
CONTINUOUS
 10
509.090191
 20
45.563032
 11
572.709391
 21
45.563032
  0
TEXT
  8
1
 62
7
  6
CONTINUOUS
 10
373.899391
 20
17.658629
 40
7.952400
 41
0.750000
  1
部  番
  7
KANJI
 50
0.136418
 51
0.000000
  0
TEXT
  8
1
 62
7
  6
CONTINUOUS
 10
552.775603
 20
39.598732
 40
5.964300
 41
0.500000
  1
K1
  7
KANJI
 50
0.000000
 51
0.000000
  0
TEXT
  8
1
 62
7
  6
CONTINUOUS
 10
550.446474
 20
32.755751
 40
4.970250
 41
0.500000
  1
SIZE
  7
KANJI
 50
0.000000
 51
0.000000
  0
TEXT
  8
1
 62
7
  6
CONTINUOUS
 10
521.155015
 20
32.838189
 40
4.970250
 41
0.500000
  1
DWG
  7
KANJI
 50
0.000000
 51
0.000000
  0
TEXT
  8
1
 62
7
  6
CONTINUOUS
 10
515.254795
 20
27.670132
 40
4.970250
 41
0.500000
  1
SHT.
  7
KANJI
 50
0.000000
 51
0.000000
  0
TEXT
  8
1
 62
7
  6
CONTINUOUS
 10
538.829533
 20
27.670132
 40
4.970250
 41
0.500000
  1
OF
  7
KANJI
 50
0.000000
 51
0.000000
  0
TEXT
  8
1
 62
7
  6
CONTINUOUS
 10
544.875991
 20
39.598732
 40
5.964300
 41
0.500000
  1
 
  7
KANJI
 50
0.000000
 51
30.000000
  0
LINE
  8
1
 62
7
  6
CONTINUOUS
 10
509.090191
 20
39.598732
 11
572.709391
 21
39.598732
  0
LINE
  8
1
 62
7
  6
CONTINUOUS
 10
509.090191
 20
32.755751
 11
572.709391
 21
32.755751
  0
TEXT
  8
1
 62
7
  6
CONTINUOUS
 10
252.625291
 20
43.574932
 40
5.964300
 41
1.000000
  1
承認
  7
KANJI
 50
0.000000
 51
0.000000
  0
TEXT
  8
1
 62
7
  6
CONTINUOUS
 10
292.387291
 20
43.574932
 40
5.964300
 41
1.000000
  1
検図
  7
KANJI
 50
0.000000
 51
0.000000
  0
TEXT
  8
1
 62
7
  6
CONTINUOUS
 10
332.149291
 20
43.574932
 40
5.964300
 41
1.000000
  1
設計
  7
KANJI
 50
0.000000
 51
0.000000
  0
LINE
  8
1
 62
7
  6
CONTINUOUS
 10
290.399191
 20
51.527332
 11
290.399191
 21
15.741532
  0
LINE
  8
1
 62
7
  6
CONTINUOUS
 10
330.161191
 20
51.527332
 11
330.161191
 21
15.741532
  0
LINE
  8
1
 62
7
  6
CONTINUOUS
 10
401.732791
 20
51.527332
 11
401.732791
 21
15.741532
  0
LINE
  8
1
 62
7
  6
CONTINUOUS
 10
535.787631
 20
51.527332
 11
535.787631
 21
39.598732
  0
TEXT
  8
1
 62
7
  6
CONTINUOUS
 10
516.048541
 20
45.563032
 40
4.970250
 41
1.000000
  1
改版日
  7
KANJI
 50
0.000000
 51
0.000000
  0
TEXT
  8
1
 62
7
  6
CONTINUOUS
 10
512.686154
 20
39.598732
 40
4.970250
 41
1.000000
  1
改版番号
  7
KANJI
 50
0.000000
 51
0.000000
  0
TEXT
  8
1
 62
7
  6
CONTINUOUS
 10
373.899391
 20
39.786202
 40
7.952400
 41
1.000000
  1
部品名
  7
KANJI
 50
0.000000
 51
0.000000
  0
LINE
  8
1
 62
7
  6
CONTINUOUS
 10
369.923191
 20
51.527332
 11
369.923191
 21
15.741532
  0
LINE
  8
1
 62
7
  6
CONTINUOUS
 10
572.709391
 20
15.741532
 11
572.709391
 21
51.527332
  0
LINE
  8
1
 62
7
  6
CONTINUOUS
 10
250.334603
 20
15.741532
 11
572.709391
 21
15.741532
  0
LINE
  8
1
 62
7
  6
CONTINUOUS
 10
572.709391
 20
51.527332
 11
250.637191
 21
51.527332
  0
LINE
  8
1
 62
7
  6
CONTINUOUS
 10
250.637191
 20
51.527332
 11
250.637191
 21
15.741532
  0
LINE
  8
1
 62
7
  6
CONTINUOUS
 10
509.090191
 20
51.527332
 11
509.090191
 21
15.741532
  0
LINE
  8
1
 62
7
  6
CONTINUOUS
 10
572.709391
 20
27.670132
 11
369.923191
 21
27.670132
  0
TEXT
  8
1
 62
7
  6
CONTINUOUS
 10
530.084066
 20
27.670132
 40
4.970250
 41
0.500000
  1
1
  7
KANJI
 50
0.000000
 51
0.000000
  0
TEXT
  8
1
 62
7
  6
CONTINUOUS
 10
536.796619
 20
32.525014
 40
6.958350
 41
0.500000
  1
A2
  7
KANJI
 50
0.782645
 51
0.000000
  0
TEXT
  8
1
 62
7
  6
CONTINUOUS
 10
555.750111
 20
27.670132
 40
4.970250
 41
0.500000
  1
1
  7
KANJI
 50
-0.017963
 51
0.000000
  0
TEXT
  8
1
 62
7
  6
CONTINUOUS
 10
408.181258
 20
40.520865
 40
7.952400
 41
1.000000
  1
招き灯外観図
  7
KANJI
 50
-0.243518
 51
0.000000
  0
TEXT
  8
1
 62
7
  6
CONTINUOUS
 10
537.474349
 20
45.563032
 40
5.964300
 41
0.500000
  1
2001/10/02
  7
KANJI
 50
0.000000
 51
30.000000
  0
TEXT
  8
1
 62
7
  6
CONTINUOUS
 10
516.355448
 20
20.942520
 40
5.964300
 41
1.000000
  1
エクノス株式会社
  7
KANJI
 50
0.000000
 51
0.000000
  0
ENDSEC
  0
EOF
